[ Сегодня на трекере фрилич! Идет свободное скачивание без начисления Download ]

Варкрафт / Warcraft (2016) HD-TC [h.264/1080p] [чистый звук]

 

Создавать темы 10-Июн-2016 13:40

- Варкрафт / Warcraft (2016) HD-TC [h.264/1080p] [чистый звук]- Производство: США, Universal Pictures
Жанр: Фантастика, Боевик
Режиссер: Дункан Джонс
Актеры: Трэвис Фиммел, Пола Пэттон, Бен Фостер, Доминик Купер, Тоби Кеббелл, Бен Шнетцер, Роберт Казински, Клэнси Браун, Дэниэл Ву, Рут Негга
Описание:
Веками магия и неприступные стены защищали людей от любых напастей. Но древнее зло, побежденное и забытое тысячелетия назад, пробудилось. В самом сердце королевства открылся темный портал, и раса невиданных существ наводнила земли Азерота. Так начались события, призванные навсегда изменить судьбу этого мира.-Дата российской премьеры: 26 мая 2016, «UPI»-Продолжительность: 02:03:53
Качество видео: HD-TC
Перевод: Многоголосый закадровый, любительский
Озвучка / Автор перевода: LOSTFILM
Язык субтитров: Китайский
Вид субтитров: Вшитые неотключаемые
Реклама: отсутствует
Видео: AVC/H.264, 1904x784, ~2299 Кбит/сек
Аудио 1: Английский, AC3, 6 ch, 448 Кбит/сек, CBR
Аудио 2: Русский, AC3, 2 ch, 384 Кбит/сек, CBR

MI:

Общее
Уникальный идентификатор                 : 239992281190852965296430961190755096297 (0xB48CD502FAF837C7A33F00656FAFD6E9)
Полное имя                               : Warcraft 2016 1080p HD-TC x264 AC3 5.1.mkv
Формат                                   : Matroska
Версия формата                           : Version 4 / Version 2
Размер файла                             : 2,71 Гбайт
Продолжительность                        : 2 ч. 3 м.
Общий поток                              : 3133 Кбит/сек
Название фильма                          : [email protected]
Дата кодирования                         : UTC 2016-06-09 19:06:49
Программа кодирования                    : mkvmerge v9.0.1 ('Obstacles') 64bit
Библиотека кодирования                   : libebml v1.3.3 + libmatroska v1.4.4
Видео
Идентификатор                            : 1
Формат                                   : AVC
Формат/Информация                        : Advanced Video Codec
Профиль формата                          : [url=mailto:[email protected]][email protected][/url]
Параметр CABAC формата                   : Да
Параметр ReFrames формата                : 5 кадров
Идентификатор кодека                     : V_MPEG4/ISO/AVC
Продолжительность                        : 2 ч. 3 м.
Битрейт                                  : 2299 Кбит/сек
Ширина                                   : 1904 пикселя
Высота                                   : 784 пикселя
Соотношение сторон                       : 2,40:1
Режим частоты кадров                     : Постоянный
Частота кадров                           : 29,970 (30000/1001) кадров/сек
Цветовое пространство                    : YUV
Субдискретизация насыщенности            : 4:2:0
Битовая глубина                          : 8 бит
Тип развёртки                            : Прогрессивная
Бит/(Пиксели*Кадры)                      : 0.051
Размер потока                            : 1,99 Гбайт (73%)
Библиотека кодирования                   : x264 core 133 r2334 a3ac64b
Настройки программы                      : cabac=1 / ref=5 / deblock=1:-1:-1 / analyse=0x3:0x113 / me=umh / subme=8 / psy=1 / psy_rd=1.00:0.00 / mixed_ref=1 / me_range=16 / chroma_me=1 / trellis=1 / 8x8dct=1 / cqm=0 / deadzone=21,11 / fast_pskip=1 / chroma_qp_offset=-2 / threads=48 / lookahead_threads=6 / sliced_threads=0 / nr=0 / decimate=1 / interlaced=0 / bluray_compat=0 / constrained_intra=0 / bframes=3 / b_pyramid=0 / b_adapt=2 / b_bias=0 / direct=3 / weightb=1 / open_gop=0 / weightp=2 / keyint=300 / keyint_min=29 / scenecut=40 / intra_refresh=0 / rc_lookahead=50 / rc=2pass / mbtree=1 / bitrate=2299 / ratetol=1.0 / qcomp=0.60 / qpmin=10 / qpmax=51 / qpstep=4 / cplxblur=20.0 / qblur=0.5 / vbv_maxrate=62500 / vbv_bufsize=78125 / nal_hrd=none / ip_ratio=1.40 / aq=1:1.00
Default                                  : Да
Forced                                   : Нет
Аудио #1
Идентификатор                            : 2
Формат                                   : AC-3
Формат/Информация                        : Audio Coding 3
Расширение режима                        : CM (complete main)
Параметр Endianness формата              : Big
Идентификатор кодека                     : A_AC3
Продолжительность                        : 2 ч. 3 м.
Вид битрейта                             : Постоянный
Битрейт                                  : 448 Кбит/сек
Каналы                                   : 6 каналов
Расположение каналов                     : Front: L C R, Side: L R, LFE
Частота                                  : 48,0 КГц
Частота кадров                           : 31,250 кадров/сек (1536 spf)
Метод сжатия                             : С потерями
Размер потока                            : 397 Мбайт (14%)
Язык                                     : English
Default                                  : Нет
Forced                                   : Нет
Аудио #2
Идентификатор                            : 3
Формат                                   : AC-3
Формат/Информация                        : Audio Coding 3
Расширение режима                        : CM (complete main)
Параметр Endianness формата              : Big
Идентификатор кодека                     : A_AC3
Продолжительность                        : 2 ч. 3 м.
Вид битрейта                             : Постоянный
Битрейт                                  : 384 Кбит/сек
Каналы                                   : 2 канала
Расположение каналов                     : Front: L R
Частота                                  : 48,0 КГц
Частота кадров                           : 31,250 кадров/сек (1536 spf)
Метод сжатия                             : С потерями
Задержка видео                           : 6 с. 26 мс.
Размер потока                            : 340 Мбайт (12%)
Заголовок                                : без рекламы
Язык                                     : Russian
Default                                  : Да
Forced                                   : Нет
Скриншоты:
Время раздачи: 24/7 до 3-х скачиваний (до появления первых 3-5 скачавших)
Яндекс.Метрика
Рейтинг@Mail.ru