[ Сегодня на трекере фрилич! Идет свободное скачивание без начисления Download ]

Невезучие / Tais-toi! (2003) BDRip 720p | 60 fps

 

Создавать темы 08-Июн-2016 23:19

Невезучие / Tais-toi! ««Им наконец повезло!»»- Название: Невезучие
Оригинальное название: Tais-toi!
Год выхода: 2003
Жанр: комедия, криминал
Режиссер: Франсис Вебер
Сценарий: Франсис Вебер, Серж Фридман
Продюсер: Саид Бен Саид, Жерар Готье
В ролях:
Жерар Депардье, Жан Рено, Ришар Берри, Андре Дюссолье, Жан-Пьер Мало, Лорен Гамелон, Орельен Рекуан, Винсен Москат, Тики Хольгадо--Сюжет:
Руби успевает спрятать награбленные деньги, украденные у мафии, прежде, чем угодить в тюрьму, где знакомится с верзилой Квентином. Теперь они вместе ломают голову над тем, как выбраться на волю и вытащить деньги из тайника… К тому же Руби мечтает отомстить своим бывшим компаньонам, ответственным за смерть его возлюбленной! Но вот как-то им все время не везет! Друзья придумывают план…-Страна: Франция, Италия
Продолжительность: 01:27:07
Файл
Кодек: V_MPEG4/ISO/AVC H.264
Формат: MKV
Качество: BDRip 720p | 60 fps
Видео: 1280 x 544 (0.075) | 59.940 fps | 3 119 Kbps
Аудио 1: MP3 | 192 kb/s | 44.1 Hz | 2.0 ch | Дубляж |
Аудио 2: MP3 | 83 kb/s | 44.1 Hz | 2.0 ch | Одноголосый |
Субтитры: нет

MedifInfo

Format : Matroska
Format version : Version 4 / Version 2
File size : 2.07 GiB
Duration : 1h 27mn
Overall bit rate mode : Variable
Overall bit rate : 3 396 Kbps
Encoded date : UTC 2016-06-07 20:52:42
Writing application : mkvmerge v9.2.0 ('Photograph') 64bit
Writing library : libebml v1.3.3 + libmatroska v1.4.4
Cover : Yes
Attachments : cover.jpg
Video
ID : 1
Format : AVC
Format/Info : Advanced Video Codec
Format profile : [email protected]
Format settings, CABAC : Yes
Format settings, ReFrames : 5 frames
Codec ID : V_MPEG4/ISO/AVC
Duration : 1h 27mn
Bit rate : 3 119 Kbps
Width : 1 280 pixels
Height : 544 pixels
Display aspect ratio : 2.35:1
Frame rate mode : Constant
Frame rate : 59.940 (60000/1001) fps
Color space : YUV
Chroma subsampling : 4:2:0
Bit depth : 8 bits
Scan type : Progressive
Bits/(Pixel*Frame) : 0.075
Stream size : 1.90 GiB (92%)
Writing library : x264 core 148 r2638 7599210
Encoding settings : cabac=1 / ref=5 / deblock=1:0:0 / analyse=0x3:0x113 / me=umh / subme=8 / psy=1 / psy_rd=1.00:0.00 / mixed_ref=1 / me_range=16 / chroma_me=1 / trellis=1 / 8x8dct=1 / cqm=0 / deadzone=21,11 / fast_pskip=1 / chroma_qp_offset=-2 / threads=6 / lookahead_threads=1 / sliced_threads=0 / nr=0 / decimate=1 / interlaced=0 / bluray_compat=0 / constrained_intra=0 / bframes=3 / b_pyramid=2 / b_adapt=2 / b_bias=0 / direct=3 / weightb=1 / open_gop=0 / weightp=2 / keyint=599 / keyint_min=59 / scenecut=40 / intra_refresh=0 / rc_lookahead=50 / rc=crf / mbtree=1 / crf=18.0 / qcomp=0.60 / qpmin=0 / qpmax=69 / qpstep=4 / ip_ratio=1.40 / aq=1:1.00
Default : Yes
Forced : No
Audio #1
ID : 2
Format : MPEG Audio
Format version : Version 1
Format profile : Layer 3
Codec ID : A_MPEG/L3
Codec ID/Hint : MP3
Duration : 1h 27mn
Bit rate mode : Constant
Bit rate : 192 Kbps
Channel(s) : 2 channels
Sampling rate : 44.1 KHz
Frame rate : 38.281 fps (1152 spf)
Compression mode : Lossy
Stream size : 120 MiB (6%)
Title : Дубляж
Writing library : LAME3.99.5
Language : Russian
Default : Yes
Forced : No
Audio #2
ID : 3
Format : MPEG Audio
Format version : Version 1
Format profile : Layer 3
Mode : Joint stereo
Mode extension : MS Stereo
Codec ID : A_MPEG/L3
Codec ID/Hint : MP3
Duration : 1h 27mn
Bit rate mode : Variable
Bit rate : 77.0 Kbps
Channel(s) : 2 channels
Sampling rate : 44.1 KHz
Frame rate : 38.281 fps (1152 spf)
Compression mode : Lossy
Stream size : 48.0 MiB (2%)
Title : Одноголосый
Writing library : LAME3.99.5ЄЄЄЄЄЄЄЄЄЄ
Language : Russian
Default : No
Forced : No

Скриншоты:

Яндекс.Метрика
Рейтинг@Mail.ru