[ Сегодня на трекере фрилич! Идет свободное скачивание без начисления Download ]

ЧОП (2016) WEB-DLRip (сезон 2, серии 1 из 16)

 

Создавать темы 06-Июн-2016 22:43

-ЧОП (2016) WEB-DLRip (сезон 2, серии 1 из 16)- Производство: "Гуд Стори Медиа", Россия
Жанр: Ситком, комедия
Режиссер: Михаил Соловьев
Актеры: Сергей Стёпин, Олег Масленников-Войтов, Сергей Терещенко, Сэм Никель, Денис Бузин, Яна Кошкина, Дмитрий Белоцерковский, Али Алиев, Ислам Мамергов, Виталий Гумеров
Описание:
Сериал повествует о жизни бизнес-центра «Соловей», в котором трудится частное охранное предприятие «Кедр». Лев Борисович, начальник ЧОП, является, как он сам считает, не только охранником материальных, но и морально-нравственных ценностей. В его подчинении находятся четыре охранника — Федя, Толя, Слава и новичок Андрей. Андрей мечтает стать рок-звездой, поэтому работой охранника не дорожит, но в первый же рабочий день встречает Снежану, работницу спа-салона, и потихоньку втягивается в будни бизнес-центра.
Ограбление спермобанка, взрыв здания, разбитая «Феррари» — это не новый фильм с Джейсоном Стетхемом, а всего лишь история о паре дней из скромной жизни охранников бизнес-центра «Соловей».
Продолжительность: ~ 00:24:00 серия
Качество видео: WEB-DLRip
Релиз от: ivandubskoj
Видеокодек: XviD
Битрейт видео: ~1800 kbps
Размер кадра: 704х400 (16:9)
Аудиокодек: MP3 2.0
Битрейт аудио: 128 kbps

Обновления раздачи

Когда раздача ведётся путём добавления новых серий, при каждом добавлении создётся новый торрент. Чтобы начать докачку новой серии, пользователям необходимо сделать следующее:
(1) остановить скачивание,
(2) удалить старый торрент у себя из клиента (старые серии удалять не надо),
(3) скачать новый торрент и запустить его у себя в клиенте вместо старого, при этом указать клиенту путь в старую папку, куда и должно происходить скачивание новых серий.
Ваш клиент при этом должен произвести хеширование (проверку) старой папки (если не производит сам - помогите ему сделать это), и будет докачивать только те серии, которых у вас ещё нет. Старые серии при этом не удаляются, а продолжают раздаваться!
Eсли вы уже удалили старые серии, то предотвратить повторную закачку старых серий можно, отжав галочку в соответсвующих местах при запуске нового торрента. По возможности, желательно не удалять старые серии как можно дольше, чтобы релизёр не столько продолжал раздавать старые серии, а смог сконцентрироваться на новых

MI

General
Complete name                            : CHOP.s02.e01.2016.WEB-DLRip.avi
Format                                   : AVI
Format/Info                              : Audio Video Interleave
File size                                : 350 MiB
Duration                                 : 24mn 3s
Overall bit rate                         : 2 036 Kbps
Writing application                      : VirtualDubMod 1.5.10.3 | [url=http://www.virtualdub-fr.org]www.virtualdub-fr.org[/url] || (build 2550/release)
Writing library                          : VirtualDubMod build 2550/release
Video
ID                                       : 0
Format                                   : MPEG-4 Visual
Format profile                           : Advanced [email protected]
Format settings, BVOP                    : 1
Format settings, QPel                    : No
Format settings, GMC                     : No warppoints
Format settings, Matrix                  : Custom
Codec ID                                 : XVID
Codec ID/Hint                            : XviD
Duration                                 : 24mn 3s
Bit rate                                 : 1 899 Kbps
Width                                    : 704 pixels
Height                                   : 400 pixels
Display aspect ratio                     : 16:9
Frame rate                               : 25.000 fps
Color space                              : YUV
Chroma subsampling                       : 4:2:0
Bit depth                                : 8 bits
Scan type                                : Progressive
Compression mode                         : Lossy
Bits/(Pixel*Frame)                       : 0.270
Stream size                              : 327 MiB (93%)
Writing library                          : XviD 73
Audio
ID                                       : 1
Format                                   : MPEG Audio
Format version                           : Version 1
Format profile                           : Layer 3
Codec ID                                 : 55
Codec ID/Hint                            : MP3
Duration                                 : 24mn 3s
Bit rate mode                            : Constant
Bit rate                                 : 128 Kbps
Channel(s)                               : 2 channels
Sampling rate                            : 48.0 KHz
Compression mode                         : Lossy
Stream size                              : 22.0 MiB (6%)
Alignment                                : Aligned on interleaves
Interleave, duration                     : 40 ms (1.00 video frame)
Interleave, preload duration             : 504 ms
Writing library                          : LAME3.99r
Encoding settings                        : -m s -V 4 -q 0 -lowpass 17 -b 128
Скриншоты
Яндекс.Метрика
Рейтинг@Mail.ru