Вот это любовь! (Станислав Назиров) [2013 г., мелодрама, комедия, WebRip]

 

Создавать темы 30-Дек-2013 23:20

--Вот это любовь!--«Догони его, если сможешь!»-- Производство: Беларусь, Россия, ФМГ Продакшн Технолоджи
Режиссер: Станислав Назиров
Жанр: мелодрама, комедия
Год выпуска: 2013 г.
Продолжительность: 01:30:45--Российская премьера: 19 сентября 2013, «Каропрокат»
Релиз на DVD: 23 декабря 2013, «Новый Диск»--В ролях: Вера Баханкова, Сергей Годин, Анна Антонова, Евгений Косырев, Владимир Епифанцев, Константин Крюков, Валерий Баринов, Елена Валюшкина, Ёлка, Кирилл Ситников--Описание: Сюжет фильма рассказывает о незабываемых приключениях двух молодых москвичек. Заурядная деловая поездка становится захватывающей погоней, наполненной отличным настроением, неожиданными событиями, искрометным юмором и, конечно же, морем чувств и ярких эмоций!-- --Трейлер--Качество видео: WebRip
Контейнер: AVI
Видео кодек: XviD
Аудио кодек: AC3
Видео: 720x384 (1.88:1), 24.000 fps, XviD build 73 ~1944 kbps avg, 0.29 bit/pixel
Аудио: 48 kHz, AC3 Dolby Digital, 2/0 (L,R) ch, ~192 kbps
Cубтитры: Отсутствуют

Media Info

Общее
Полное имя : H:\Torrent2\Vot.eto.lubov.2013.O.WEBRip.1400MB_[pirat.ca].avi
Формат : AVI
Формат/Информация : Audio Video Interleave
Размер файла : 1,36 Гбайт
Продолжительность : 1 ч. 30 м.
Общий поток : 2146 Кбит/сек
Программа кодирования : VirtualDubMod 1.5.10.3 | www.virtualdub-fr.org || (build 2550/release)
Библиотека кодирования : VirtualDubMod build 2550/release
Видео
Идентификатор : 0
Формат : MPEG-4 Visual
Профиль формата : Advanced [email protected]
Параметр BVOP формата : 2
Параметр QPel формата : Нет
Параметр GMC формата : Без точки перехода
Параметр матрицы формата : Default (H.263)
Идентификатор кодека : XVID
Идентификатор кодека/Подсказка : XviD
Продолжительность : 1 ч. 30 м.
Битрейт : 1944 Кбит/сек
Ширина : 720 пикселей
Высота : 384 пикселя
Соотношение сторон : 1,85:1
Частота кадров : 24,000 кадра/сек
Цветовое пространство : YUV
Субдискретизация насыщенности : 4:2:0
Битовая глубина : 8 бит
Тип развёртки : Прогрессивная
Метод сжатия : С потерями
Бит/(Пиксели*Кадры) : 0.293
Размер потока : 1,23 Гбайт (91%)
Библиотека кодирования : XviD 73
Аудио
Идентификатор : 1
Формат : AC-3
Формат/Информация : Audio Coding 3
Расширение режима : CM (complete main)
Параметр Endianness формата : Big
Идентификатор кодека : 2000
Продолжительность : 1 ч. 30 м.
Вид битрейта : Постоянный
Битрейт : 192 Кбит/сек
Каналы : 2 канала
Расположение каналов : Front: L R
Частота : 48,0 КГц
Битовая глубина : 16 бит
Метод сжатия : С потерями
Размер потока : 125 Мбайт (9%)
Выравнивание : Разделение по промежуткам
Продолжительность промежутка : 42 мс. (1,00 видеокадр)
Время предзагрузки промежутка : 500 мс.

Скриншоты

Создавать темы 31-Янв-2016 13:59 (спустя 2 года 1 месяц)

Топик был перенесен из форума Отечественные Новинки (HD*Rip/LQ, DVDRip) в форум Отечественные Фильмы (HD*Rip/LQ, DVDRip, SATRip, VHSRip)
T_O_M
Яндекс.Метрика
Рейтинг@Mail.ru