Восход тьмы / The Seeker: The Dark Is Rising (Дэвид Л. Каннингэм / David L. Cunningham) [2007 г., триллер, фэнтези, драма, приключения, HDTVRip] Dub [Невафильм 2007]

 

Создавать темы 24-Май-2016 03:20

-Восход тьмы / The Seeker: The Dark Is Rising-- Производство: США, 20th Century Fox Film Corporation, Marc Platt Productions, Walden Media, ...
Год выпуска: 2007 г.
Жанр: триллер, фэнтези, драма, приключения
Продолжительность: 01:38:51Мировая премьера: октября 2007
Российская премьера: 25 октября 2007, «Фокс/Гемини»
Дата выхода DVD: 11 декабря 2007, «Двадцатый Век Фокс СНГ»
Перевод: Профессиональный (полное дублирование) [Невафильм 2007]
Режиссер: Дэвид Л. Каннингэм / David L. Cunningham-В ролях: Александр Людвиг (Will Stanton), Кристофер Экклстон (The Rider), Иэн МакШейн (Merriman Lyon), Фрэнсис Конрой (Miss Greythorne), Джеймс Космо (Dawson), Джим Пиддок (Old George), Амелия Уорнер (Maggie Barnes), Джон Бенжамин Хикки (John Stanton), Венди Крюсон (Mary Stanton), Эмма Локхарт (Gwen Stanton), Дрю Тайлер Белл (James Stanton), Эдмунд Энтин (Robin Stanton)
Роли дублируют: Артем Сергеев (Will Stanton), Александр Большаков (The Rider), Виктор Костецкий (Merriman Lyon), Артем Веселов (John Stanton), Регина Щукина (Mary Stanton)-Описание: Жизнь главного героя переворачивается, когда он случайно узнаёт, что судьбой ему предначертано стать последним из бессмертных воинов, посвятивших всю свою жизнь борьбе с силами Тьмы. Наш герой отправляется в путешествие через века, чтобы найти шесть элементов, которые помогут ему предотвратить восход тьмы.-
Качество видео: HDTVRip
Контейнер: AVI
Видео кодек: XviD
Аудио кодек: AC3
Видео: 720x400 (1.80:1), 23.976 fps, XviD build 50 ~1724 kbps avg, 0.25 bit/pixel
Аудио: 48 kHz, AC3 Dolby Digital, 3/2 (L,C,R,l,r) + LFE ch, ~384 kbps
Cубтитры: отсутствуют

Доп. информация

Фильм снят по мотивам второй части цикла романов Сьюзэн Купер «Восход тьмы» (The Dark Is Rising, 1965-1977).
Первоначально права на экранизацию книги были приобретены ещё в июле 1997 года независимой компанией Jim Henson Pictures. За последующие восемь лет производство проекта так и не сдвинулось с мёртвой точки, и в мае 2005 года права были куплены студией Walden Media.
Персонаж Джонатана Джексона по имени Странник, играющий ключевую роль в повести Сьюзэн Купер, и вся связанная с ним сюжетная линия были полностью вырезаны из финальной версии фильма. Это особенно удивительно, поскольку фигура актёра появлялась практически на всех ранних постерах картины.

Рецензия

Детское кино во взрослой оболочкеОчередная подделка на тему фэнтези. Идея примерно та же, что и в «Гарри Поттере» и « Ученике чародея». Есть некий избранный — в данном случае мальчик Уилл Стантон, наделённый невероятной физической силой, способностями пирокинеза, а самое главное, умением видеть некие знаки — и он должен остановить очередной конец света. Конец света придет в виде темного всадника, несущего с собой абсолютную тьму. До его прихода осталось всего несколько дней, а победить его можно только собрав семь артефактов, разбросанных по разным эпохам — от двенадцатого века до наших дней, но почему-то всегда в одном и том же месте.Фильм сделан добротно — качественные спецэффекты, хорошая музыка, красивые локации — в общем, с технической точки зрения все сделано правильно. Но вот остальное… игра актеров невразумительна, многие из персонажей введены на экран лишь для того, «чтобы были». Интриги нет никакой. Образ ведьмы раскрывается в момент ее появления перед всадником, хоть лица и не показано. Кто такие Древние? И зачем они нужны?Говорят, что книга впечатляет больше. Удивительно, что при наличии денег — о чем говорит техническое исполнение фильма — и неплохого первоначального сюжета в виде книги, можно умудрится снять столь невыразительный фильм. Впрочем, не будем огульно критиковать всё. Фильм относительно прост для понимания — вот есть Добро в виде мальчика. Вот есть Зло в виде Всадника. Добро должно победить. Чем не сюжет для детской сказки? Причем победить так, чтобы получилось без лишней жестокости и ненужной крови. Может быть поэтому главный злодей даже ни разу не получает трубой по зубам?Если подходить к фильму как к детской сказке, то нареканий нет. А так как в нем нет плоских шуток, заметок на тему «ниже пояса», то «Восход тьмы» вполне может быть рекомендован к просмотру детям. Причем, наличие родителей в этот момент вблизи необязательно. Да и скучно им будет смотреть такое кино…

Media Info

Формат : AVI
Формат/Информация : Audio Video Interleave
Размер файла : 1,46 Гбайт
Продолжительность : 1 ч. 38 м.
Общий поток : 2118 Кбит/сек
Название фильма : The Seeker The Dark Is Rising.[pirat.ca]
Программа кодирования : VirtualDubMod 1.5.10.2 (build 2540/release)Видео
Идентификатор : 0
Формат : MPEG-4 Visual
Профиль формата : Advanced [email protected]/* */
Параметр BVOP формата : 2
Параметр QPel формата : Нет
Параметр GMC формата : Без точки перехода
Параметр матрицы формата : Выборочная
Идентификатор кодека : XVID
Идентификатор кодека/Подсказка : XviD
Продолжительность : 1 ч. 38 м.
Битрейт : 1725 Кбит/сек
Ширина : 720 пикселей
Высота : 400 пикселей
Соотношение сторон : 16:9
Частота кадров : 23,976 (23976/1000) кадра/сек
Цветовое пространство : YUV
Субдискретизация насыщенности : 4:2:0
Битовая глубина : 8 бит
Тип развёртки : Прогрессивная
Метод сжатия : С потерями
Бит/(Пиксели*Кадры) : 0.250
Размер потока : 1,19 Гбайт (81%)
Библиотека кодирования : XviD 1.2.1 (UTC 2008-12-04)Аудио
Идентификатор : 1
Формат : AC-3
Формат/Информация : Audio Coding 3
Расширение режима : CM (complete main)
Параметр Endianness формата : Big
Идентификатор кодека : 2000
Продолжительность : 1 ч. 38 м.
Вид битрейта : Постоянный
Битрейт : 384 Кбит/сек
Каналы : 6 каналов
Расположение каналов : Front: L C R, Side: L R, LFE
Частота : 48,0 КГц
Частота кадров : 31,250 кадров/сек (1536 spf)
Метод сжатия : С потерями
Задержка видео : 24 мс.
Размер потока : 271 Мбайт (18%)
Выравнивание : Разделение по промежуткам
Продолжительность промежутка : 42 мс. (1,00 видеокадр)
Время предзагрузки промежутка : 500 мс.

Скриншот c названием фильма

Скриншоты

Трейлер

Яндекс.Метрика
Рейтинг@Mail.ru