[ Сегодня на трекере фрилич! Идет свободное скачивание без начисления Download ]

До самого конца / All the Way (2016) HDTV 1080i | P

 

Создавать темы 23-Май-2016 10:14

- До самого конца / All the Way (2016) HDTV [H.264/1080i]- Производство: США, Amblin Entertainment, HBO Films, Moon Shot Entertainment
Жанр: Драма, Биография, История
Режиссер: Джей Роуч
Продюсер: Скотт Фергюсон, Брайан Крэнстон, Джеймс Дегус
Актеры: Энтони Маки, Брайан Крэнстон, Джо Мортон, Брэдли Уитфорд, Фрэнк Ланджелла, Стивен Рут, Мелисса Лео, Итэн Филлипс, Тоби Хасс, Аиша Хайндс
Описание:
После убийства Джона Ф. Кеннеди Линдон Джонсон одерживает сокрушительную победу на выборах 1964 года и становится президентом США. Фильм расскажет про смутный первый год в Белом доме и усилия Джонсона по скорейшему принятию беспрецедентного Акта о гражданских правах, призванного уничтожить расовую сегрегацию на юге США. В этом непростом процессе президент оказывается между двух огней: с одной стороны – ему нужно выполнить моральный долг перед защитником прав чернокожих Мартином Лютером Кингом, а с другой – ответить ожиданиям южных лидеров Демократической партии, которые привели его к власти.
Дата мировой премьеры: 21 мая 2016
Дата российской премьеры: 22 мая 2016
Продолжительность: 02:05:48
Качество видео: HDTV [1080i]
Перевод: Многоголосый закадровый, профессиональный
Озвучка / Автор перевода: NovaMedia
Язык субтитров: Русский
Вид субтитров: Вшитые отключаемые
Видео: AVC/H.264, 1920x1080, ~6730 Kbps
Аудио #1 Rus: MP2, 2 ch, 48,0 kHz, 192 kbps - многоголосый
Аудио #2 Eng: MP2, 2 ch, 48,0 kHz, 192 kbps - оригинал
Аудио #3 Rus: АС3, 6 ch, 48,0 kHz, 384 kbps - многоголосый

Mediainfo:

Общее
Идентификатор : 16 (0x10)
Полное имя : All the Way_HD.ts
Формат : MPEG-TS
Размер файла : 6,94 Гбайт
Продолжительность : 2 ч. 5 м.
Режим общего битрейта : Переменный
Общий поток : 7896 Кбит/сек
Видео
Идентификатор : 1812 (0x714)
Идентификатор меню : 812 (0x32C)
Формат : AVC
Формат/Информация : Advanced Video Codec
Профиль формата : [url=mailto:[email protected]][email protected][/url]
Параметр CABAC формата : Да
Параметр ReFrames формата : 4 кадра
Идентификатор кодека : 27
Продолжительность : 2 ч. 5 м.
Битрейт : 6730 Кбит/сек
Ширина : 1920 пикселей
Высота : 1080 пикселей
Соотношение сторон : 16:9
Частота кадров : 25,000 кадров/сек
Стандарт вещания : PAL
Цветовое пространство : YUV
Субдискретизация насыщенности : 4:2:0
Битовая глубина : 8 бит
Тип развёртки : MBAFF
Бит/(Пиксели*Кадры) : 0.130
Размер потока : 5,92 Гбайт (85%)
Основные цвета : BT.709
Характеристики трансфера : BT.709
Коэффициенты матрицы : BT.709
Аудио #1
Идентификатор : 2812 (0xAFC)
Идентификатор меню : 812 (0x32C)
Формат : MPEG Audio
Версия формата : Version 1
Профиль формата : Layer 2
Идентификатор кодека : 4
Продолжительность : 2 ч. 5 м.
Вид битрейта : Постоянный
Битрейт : 192 Кбит/сек
Каналы : 2 канала
Частота : 48,0 КГц
Метод сжатия : С потерями
Задержка видео : 265 мс.
Размер потока : 173 Мбайт (2%)
Язык : std
Язык, дополнительно : Clean effects
Аудио #2
Идентификатор : 3812 (0xEE4)
Идентификатор меню : 812 (0x32C)
Формат : MPEG Audio
Версия формата : Version 1
Профиль формата : Layer 2
Идентификатор кодека : 4
Продолжительность : 2 ч. 5 м.
Вид битрейта : Постоянный
Битрейт : 192 Кбит/сек
Каналы : 2 канала
Частота : 48,0 КГц
Метод сжатия : С потерями
Задержка видео : 265 мс.
Размер потока : 173 Мбайт (2%)
Язык : std
Язык, дополнительно : Clean effects
Аудио #3
Идентификатор : 4812 (0x12CC)
Идентификатор меню : 812 (0x32C)
Формат : AC-3
Формат/Информация : Audio Coding 3
Расширение режима : CM (complete main)
Параметр Endianness формата : Big
Идентификатор кодека : 6
Продолжительность : 2 ч. 5 м.
Вид битрейта : Постоянный
Битрейт : 384 Кбит/сек
Каналы : 6 каналов
Расположение каналов : Front: L C R, Side: L R, LFE
Частота : 48,0 КГц
Битовая глубина : 16 бит
Метод сжатия : С потерями
Задержка видео : 149 мс.
Размер потока : 346 Мбайт (5%)
Язык : std
Язык, дополнительно : Clean effects
Текст
Идентификатор : 63 (0x3F)-100
Идентификатор меню : 812 (0x32C)
Формат : Teletext
Меню
Идентификатор : 812 (0x32C)
Идентификатор меню : 812 (0x32C)
Продолжительность : 2 ч. 5 м.
Список : 1812 (0x714) (AVC) / 2812 (0xAFC) (MPEG Audio, std) / 3812 (0xEE4) (MPEG Audio, std) / 4812 (0x12CC) (AC-3, std) / 63 (0x3F) ()
Язык : / std / std / std
Скриншоты:
Яндекс.Метрика
Рейтинг@Mail.ru