[ Сегодня на трекере фрилич! Идет свободное скачивание без начисления Download ]

Пока цветет папоротник (Сезон 1; Серии 1-13 из 13) (Евгений Бедарев) [2012, комедия, приключения, фентези, SATRip-AVC]

 

Создавать темы 22-Май-2016 12:07

--Пока цветет папоротник--
  • Год выпуска: 2012
  • Страна: Россия / «ИВД PRODUCTION», «БЕЛЫЙ ЕДИНОРОГ»
  • Жанр: комедия, приключения, фентези
  • Продолжительность: 13 х ~00:48:00
  • Перевод: Не требуется-
  • Режиссёр: Евгений Бедарев-
  • В ролях: Александр Петров, Светлана Суханова, Татьяна Орлова, Роман Курцын, Павел Крайнов, Дмитрий Бедарев, Залим Мирзоев, Александр Мезенцев, Сергей Русскин, Елена Николаева...-
  • Всего несколько дней остается до ночи на Ивана Купалу. В эту ночь зацветет волшебный папоротник, цветок которого позволяет видеть клады под землей, читать мысли людей и повелевать духами… Всего несколько секунд понадобилось столичному журналисту Кириллу, чтобы оказаться на Алтае. Провалившись в открытый люк в центре Москвы, он вынырнул из колодца в глухой алтайской деревне. На поиски Кирилла отправляется сестра Саша, вот только их возвращение домой никто не гарантирует. Все, что предстоит пережить Кириллу, его сестре и их случайным попутчикам, — не просто цепь совпадений, а невидимая борьба сверхъестественных сил. Но разве могли герои из цивилизованного мира понять, что они уже давно оказались в зачарованном и таинственном месте, где реальность не подчиняется обычным законам? Теперь, чтобы остаться в живых, найти друг друга и победить зло, у героев остается совсем мало времени! Магия, колдовство, древние легенды и мистические перевоплощения — чудеса случаются! Не веришь? Тогда отправляйся вместе с героями сериала «Пока цветет папоротник» в волшебное и таинственное путешествие по Алтаю. Помимо захватывающего сюжета и фантастических алтайских пейзажей, сериал порадует тебя оригинальными саундтреками и популярными песнями. Музыку к сериалу «Пока цветет папоротник» написал Роман Архипов, бывший солист группы «Челси», а музыканты группы «Город 312» исполнили две новых песни: «Помоги мне» и «Странник».-
  • Премьера в России: 1 октября 2012 (СТС)--
  • --
  • Качество видео: SATRip-AVC
  • Формат видео: MKV
  • Видео кодек: H.264
  • Аудио кодек: AC3
  • Видео: [email protected] (1.77:1), 25.000 fps, MPEG-4 AVC, ~1524 kbps avg, 0.200 bit/pixel
  • Аудио: 48.0 kHz, AC3 Dolby Digital, 2/0 (L,R) ch, ~256.00 kbps avg
  • Субтитры: нет
--

Media Info

General
Unique ID : 234589951213949954127592426484536680105 (0xB07C6194538400529EBAFAA7FE339EA9)
Complete name : W:\O.S.A.\Торренты\Завершенные торренты\Пока цветёт папоротник.2012.SATRip-AVC.Metla111\Пока цветёт папоротник.01 серия.2012.SATRip-AVC.Metla111.mkv
Format : Matroska
File size : 604 MiB
Duration : 47mn 21s
Overall bit rate : 1 782 Kbps
Encoded date : UTC 2012-11-30 18:48:48
Writing application : mkvmerge v5.8.0 ('No Sleep / Pillow') built on Sep 2 2012 15:37:04
Writing library : libebml v1.2.3 + libmatroska v1.3.0
Video
ID : 1
Format : AVC
Format/Info : Advanced Video Codec
Format profile : [email protected]
Format settings, CABAC : Yes
Format settings, ReFrames : 12 frames
Codec ID : V_MPEG4/ISO/AVC
Duration : 47mn 21s
Bit rate : 1 524 Kbps
Width : 704 pixels
Height : 432 pixels
Display aspect ratio : 16:9
Original display aspect ratio : 16:9
Frame rate : 25.000 fps
Color space : YUV
Chroma subsampling : 4:2:0
Bit depth : 8 bits
Scan type : Progressive
Bits/(Pixel*Frame) : 0.200
Stream size : 505 MiB (84%)
Writing library : x264 core 125 r2208 d9d2288
Encoding settings : cabac=1 / ref=12 / deblock=1:-3:-3 / analyse=0x3:0x113 / me=umh / subme=9 / psy=1 / psy_rd=1.00:0.15 / mixed_ref=1 / me_range=32 / chroma_me=1 / trellis=2 / 8x8dct=1 / cqm=0 / deadzone=21,11 / fast_pskip=1 / chroma_qp_offset=-3 / threads=3 / lookahead_threads=1 / sliced_threads=0 / nr=0 / decimate=0 / interlaced=0 / bluray_compat=0 / constrained_intra=0 / bframes=12 / b_pyramid=2 / b_adapt=2 / b_bias=0 / direct=3 / weightb=1 / open_gop=0 / weightp=2 / keyint=250 / keyint_min=25 / scenecut=40 / intra_refresh=0 / rc=2pass / mbtree=0 / bitrate=1524 / ratetol=1.0 / qcomp=0.65 / qpmin=0 / qpmax=69 / qpstep=4 / cplxblur=20.0 / qblur=0.5 / ip_ratio=1.40 / pb_ratio=1.30 / aq=2:1.00
Color primaries : BT.470-6 System B, BT.470-6 System G, BT.601-6 625, BT.1358 625, BT.1700 625 PAL, BT.1700 625 SECAM
Transfer characteristics : BT.470-6 System B, BT.470-6 System G
Matrix coefficients : BT.470-6 System B, BT.470-6 System G, BT.601-6 625, BT.1358 625, BT.1700 625 PAL, BT.1700 625 SECAM, IEC 61966-2-4 601
Audio
ID : 2
Format : AC-3
Format/Info : Audio Coding 3
Mode extension : CM (complete main)
Codec ID : A_AC3
Duration : 47mn 21s
Bit rate mode : Constant
Bit rate : 256 Kbps
Channel(s) : 2 channels
Channel positions : Front: L R
Sampling rate : 48.0 KHz
Bit depth : 16 bits
Compression mode : Lossy
Stream size : 86.7 MiB (14%)
---- --
Яндекс.Метрика
Рейтинг@Mail.ru