[ Сегодня на трекере фрилич! Идет свободное скачивание без начисления Download ]

Боги Египта / Gods of Egypt (2016) WEB-DLRip [H.264]

 

Создавать темы 17-Май-2016 15:13

- Боги Египта / Gods of Egypt (2016) WEB-DLRip [H.264] - Производство: США | Mystery Clock Cinema, Summit Entertainment
Жанр: Фэнтези, Боевик, Приключения
Режиссер: Алекс Пройас
Продюсер: Бэзил Иваник, Алекс Пройас, Брайан Букман
Актеры: Брентон Туэйтс, Джон Самаха, Кортни Итон, Николай Костер-Вальдау, Паула Арунделл, Алиа Серор-О’Нилл, Эмили Уитон, Элоди Юнг, Рэйчел Блейк, Брайан Браун
Описание:
Некогда мирное и процветающее египетское царство погружается в хаос: беспощадный бог тьмы Сет убивает своего брата Осириса и узурпирует трон. Вызов ему неожиданно бросает простой смертный, находчивый молодой вор. Чтобы вернуть к жизни свою прекрасную возлюбленную, ему приходится заручиться поддержкой могущественного и мстительного бога Гора. Лишь выдержав испытание на прочность и принеся в жертву все самое дорогое, им удастся противостоять Сету и его приспешникам в мире живых и мире мертвых.-Возраст: 16+ (зрителям, достигшим 16 лет)
Рейтинг MPAA: PG-13 (детям до 13 лет просмотр нежелателен)
Дата мировой премьеры: 24 февраля 2016
Дата премьеры в России: 25 февраля 2016, «Централ Партнершип»

Релиз: ExKinoRay
Продолжительность: 02:06:50
Качество видео: WEB-DLRip (H.264)
Перевод: Дублированный (iTunes)
Вид субтитров: Отсутствуют
Видео: AVC/H.264, 1024x426, 2114 Kbps
Аудио: AC-3, 48.0 KHz, 6 ch, 384 Kbps

Mediainfo:

Общее
Уникальный идентификатор                 : 309269846742453111309370573838407520506 (0xE8AB34B4241B5AF166F59F8DB96950FA)
Полное имя                               : F:\Bogi.Egipta.2016.NNM-CLUB.mkv
Формат                                   : Matroska
Версия формата                           : Version 4 / Version 2
Размер файла                             : 2,26 Гбайт
Продолжительность                        : 2 ч. 6 м.
Общий поток                              : 2549 Кбит/сек
Дата кодирования                         : UTC 2016-05-16 18:07:38
Программа кодирования                    : Lavf56.36.100
Библиотека кодирования                   : Lavf56.36.100
Видео
Идентификатор                            : 2
Формат                                   : AVC
Формат/Информация                        : Advanced Video Codec
Профиль формата                          : [url=mailto:[email protected]][email protected][/url]
Параметр CABAC формата                   : Да
Параметр ReFrames формата                : 2 кадра
Идентификатор кодека                     : V_MPEG4/ISO/AVC
Продолжительность                        : 2 ч. 6 м.
Битрейт                                  : 2114 Кбит/сек
Ширина                                   : 1024 пикселя
Высота                                   : 426 пикселей
Соотношение сторон                       : 2,40:1
Режим частоты кадров                     : Постоянный
Частота кадров                           : 24,000 кадра/сек
Цветовое пространство                    : YUV
Субдискретизация насыщенности            : 4:2:0
Битовая глубина                          : 8 бит
Тип развёртки                            : Прогрессивная
Бит/(Пиксели*Кадры)                      : 0.202
Размер потока                            : 1,87 Гбайт (83%)
Язык                                     : English
Default                                  : Да
Forced                                   : Нет
DURATION                                 : 02:06:50.209000000
NUMBER_OF_FRAMES                         : 182645
NUMBER_OF_BYTES                          : 3803537172
_STATISTICS_WRITING_APP                  : mkvmerge v8.3.0 ('Over the Horizon') 64bit
_STATISTICS_WRITING_DATE_UTC             : 2016-05-16 18:07:38
_STATISTICS_TAGS                         : BPS DURATION NUMBER_OF_FRAMES NUMBER_OF_BYTES
Аудио
Идентификатор                            : 1
Формат                                   : AC-3
Формат/Информация                        : Audio Coding 3
Расширение режима                        : CM (complete main)
Параметр Endianness формата              : Big
Идентификатор кодека                     : A_AC3
Продолжительность                        : 2 ч. 6 м.
Вид битрейта                             : Постоянный
Битрейт                                  : 384 Кбит/сек
Каналы                                   : 6 каналов
Расположение каналов                     : Front: L C R, Side: L R, LFE
Частота                                  : 48,0 КГц
Битовая глубина                          : 16 бит
Метод сжатия                             : С потерями
Размер потока                            : 348 Мбайт (15%)
Язык                                     : Russian
Default                                  : Да
Forced                                   : Нет
DURATION                                 : 02:06:50.208000000
NUMBER_OF_FRAMES                         : 237819
NUMBER_OF_BYTES                          : 365289984
_STATISTICS_WRITING_APP                  : mkvmerge v8.3.0 ('Over the Horizon') 64bit
_STATISTICS_WRITING_DATE_UTC             : 2016-05-16 18:07:38
_STATISTICS_TAGS                         : BPS DURATION NUMBER_OF_FRAMES NUMBER_OF_BYTES
Скриншоты:
Яндекс.Метрика
Рейтинг@Mail.ru