Пёс (Серии 1—20 из 20) (Николай Каптан, Игорь Забара) [2015/16, криминал, SATRip]

 

Создавать темы 12-Май-2016 21:56

--Пёс--
  • Год выпуска: 2015/16
  • Страна: Украина / «PRO-TV»
  • Жанр: криминал
  • Продолжительность: 20 х ~00:50:00
  • Язык: Русский-
  • Режиссёр: Николай Каптан, Игорь Забара-
  • В ролях: Никита Панфилов, Андрей Саминин, Михаил Жонин, Ольга Олексий, Денис Роднянский, Светлана Зельбет, Ольга Морозова, Тарас Мельничук, Автандил Бежиашвили, Илья Прокопив...-
  • У полицейского Максима Максимова за плечами много раскрытых преступлений. На службе он на хорошем счету, а вот личная жизнь не складывается: жена ушла к его лучшему другу и коллеге Леонидову. И, как известно, беда не приходит одна: во время очередного дела Максима подставляют. Он — еще недавно лучший сыщик в городе — остается без работы, друзей, денег и начинает пить.
    Однажды ему приходит сообщение от бывшего шефа и тестя Жарова. Максим приезжает к нему домой и оказывается на месте преступления. Тело убитого родственника охраняет раненная овчарка, прибывшие оперативники предлагают застрелить собаку, но Максим забирает пса к себе домой. Вместе с новым другом по кличке Пёс бывший полицейский начинает вести собственные расследования, первое из которых — загадочное убийство Жарова...
    -
  • Премьера в Украине: 1 сентября 2015 (ICTV); Премьера в России: 16 мая 2016 (НТВ)--
  • --
  • Качество видео: SATRip
  • Формат видео: AVI
  • Видео кодек: XviD
  • Аудио кодек: MP3
  • Видео: 720x400 (1.80:1), 25.000 fps, XviD MPEG-4, ~1500 kbps avg, 0.208 bit/pixel
  • Аудио: 48.0 kHz, MPEG Audio Layer 3, 2 ch, ~192.00 kbps avg
  • Субтитры: нет
--

Media Info

General
Complete name : W:\O.S.A.\Торренты\Завершенные торренты\Пёс (2015)\Пёс.(01.seriya).2015.XviD.SATRip.by.simka.avi
Format : AVI
Format/Info : Audio Video Interleave
File size : 599 MiB
Duration : 49mn 13s
Overall bit rate : 1 702 Kbps
Writing application : VirtualDubModRus 1.5.10.2 (build 2542/release)
Writing library : VirtualDubMod build 2542/release
Video
ID : 0
Format : MPEG-4 Visual
Format profile : Advanced [email protected]
Format settings, BVOP : 1
Format settings, QPel : No
Format settings, GMC : No warppoints
Format settings, Matrix : Default (MPEG)
Codec ID : XVID
Codec ID/Hint : XviD
Duration : 49mn 13s
Bit rate : 1 500 Kbps
Width : 720 pixels
Height : 400 pixels
Display aspect ratio : 16:9
Frame rate : 25.000 fps
Color space : YUV
Chroma subsampling : 4:2:0
Bit depth : 8 bits
Scan type : Progressive
Compression mode : Lossy
Bits/(Pixel*Frame) : 0.208
Stream size : 528 MiB (88%)
Writing library : XviD 1.2.1 (UTC 2008-12-04)
Audio
ID : 1
Format : MPEG Audio
Format version : Version 1
Format profile : Layer 3
Mode : Joint stereo
Mode extension : MS Stereo
Codec ID : 55
Codec ID/Hint : MP3
Duration : 49mn 13s
Bit rate mode : Constant
Bit rate : 192 Kbps
Channel(s) : 2 channels
Sampling rate : 48.0 KHz
Compression mode : Lossy
Stream size : 67.6 MiB (11%)
Alignment : Aligned on interleaves
Interleave, duration : 40 ms (1.00 video frame)
Interleave, preload duration : 504 ms
Writing library : LAME3.99r
Encoding settings : -m j -V 4 -q 2 -lowpass 18.6 -b 192
--- --

Создавать темы 12-Май-2016 22:23 (спустя 27 минут)

О.О.Ф. ab
Яндекс.Метрика
Рейтинг@Mail.ru