Образцовый самец 2 / Zoolander 2 (2016) BDRip 1080p | D | Line

 

Создавать темы 11-Май-2016 21:45

Образцовый самец 2 / Zoolander 2 Год выхода: 2016
Жанр: Комедия
Режиссёр: Бен Стиллер
В ролях:
Бен Стиллер, Оуэн Уилсон, Пенелопа Крус, Кристен Уиг, Уилл Феррелл, Бенедикт Камбербэтч, Оливия Манн, Кристин Тейлор, Ариана Гранде, Джастин Бибер
О фильме:
Триумфальное возвращение на подиумы когда-то топовых, а ныне слегка потрепанных мужчин-моделей Дерека Зуландера и Ханселя в комедии о мире, где для обретения всеобщей популярности достаточно одного селфи.

Выпущено: США, Red Hour Films, Scott Rudin Productions
Продолжительность: 01:41:47
Перевод: Дублированный (SDI-Media) | Line
Оригинальная аудио-дорожка: Английская
Файл
Формат: MKV
Качество: BDRip (1080p)
Видео: MPEG-4 AVC, 1920x808 (2.40:1), 9252 Кбит/с, 23.976 кадр/с, 0.249 bit/pixel
Аудио #1: Русский, Dolby AC3, 48000 Гц, 384 Кбит/с, 2 канала (Стерео) - DUB [SDI-Media]
Аудио #2: Английская, DTS, 48000 Гц, 1510 Кбит/с, 6 каналов (5.1) - Оригинал
Субтитры: Английские (полные, SDH) SRT
Навигация по главам: Есть

MediaInfo

General
Unique ID                                : 240168426532554963802559161515421729094 (0xB4AEC1A5C277A3AEB69656C56FF00146)
Complete name                            : Zoolander.2.2016.BDRip.1080p.mkv
Format                                   : Matroska
Format version                           : Version 4 / Version 2
File size                                : 7.92 GiB
Duration                                 : 1h 41mn
Overall bit rate                         : 11.1 Mbps
Movie name                               : Образцовый самец 2 / Zoolander 2 (2016) BDRip (1080p)
Encoded date                             : UTC 2016-05-11 10:47:17
Writing application                      : mkvmerge v7.9.0 ('Birds') 64bit
Writing library                          : libebml v1.3.1 + libmatroska v1.4.2
Video
ID                                       : 1
Format                                   : AVC
Format/Info                              : Advanced Video Codec
Format profile                           : [email protected]
Format settings, CABAC                   : Yes
Format settings, ReFrames                : 5 frames
Codec ID                                 : V_MPEG4/ISO/AVC
Duration                                 : 1h 41mn
Bit rate                                 : 9 252 Kbps
Width                                    : 1 920 pixels
Height                                   : 808 pixels
Display aspect ratio                     : 2.40:1
Frame rate mode                          : Constant
Frame rate                               : 23.976 fps
Color space                              : YUV
Chroma subsampling                       : 4:2:0
Bit depth                                : 8 bits
Scan type                                : Progressive
Bits/(Pixel*Frame)                       : 0.249
Stream size                              : 6.42 GiB (81%)
Title                                    : Zoolander 2 (2016)
Writing library                          : x264 core 148 r2692 64f4e24
Encoding settings                        : cabac=1 / ref=5 / deblock=1:0:0 / analyse=0x3:0x133 / me=umh / subme=7 / psy=1 / psy_rd=1.00:0.00 / mixed_ref=1 / me_range=16 / chroma_me=1 / trellis=1 / 8x8dct=1 / cqm=0 / deadzone=21,11 / fast_pskip=0 / chroma_qp_offset=-2 / threads=18 / lookahead_threads=3 / sliced_threads=0 / nr=0 / decimate=1 / interlaced=0 / bluray_compat=0 / constrained_intra=0 / bframes=3 / b_pyramid=2 / b_adapt=1 / b_bias=0 / direct=1 / weightb=1 / open_gop=0 / weightp=2 / keyint=250 / keyint_min=23 / scenecut=40 / intra_refresh=0 / rc_lookahead=40 / rc=2pass / mbtree=1 / bitrate=9252 / ratetol=1.0 / qcomp=0.60 / qpmin=0 / qpmax=69 / qpstep=4 / cplxblur=20.0 / qblur=0.5 / ip_ratio=1.40 / aq=1:1.00
Language                                 : English
Default                                  : Yes
Forced                                   : No
Audio #1
ID                                       : 2
Format                                   : AC-3
Format/Info                              : Audio Coding 3
Mode extension                           : CM (complete main)
Format settings, Endianness              : Big
Codec ID                                 : A_AC3
Duration                                 : 1h 41mn
Bit rate mode                            : Constant
Bit rate                                 : 384 Kbps
Channel(s)                               : 2 channels
Channel positions                        : Front: L R
Sampling rate                            : 48.0 KHz
Bit depth                                : 16 bits
Compression mode                         : Lossy
Stream size                              : 280 MiB (3%)
Title                                    : DUB [SDI-Media]
Language                                 : Russian
Default                                  : Yes
Forced                                   : No
Audio #2
ID                                       : 3
Format                                   : DTS
Format/Info                              : Digital Theater Systems
Mode                                     : 16
Format settings, Endianness              : Big
Codec ID                                 : A_DTS
Duration                                 : 1h 41mn
Bit rate mode                            : Constant
Bit rate                                 : 1 509 Kbps
Channel(s)                               : 6 channels
Channel positions                        : Front: L C R, Side: L R, LFE
Sampling rate                            : 48.0 KHz
Bit depth                                : 24 bits
Compression mode                         : Lossy
Stream size                              : 1.07 GiB (14%)
Title                                    : Original
Language                                 : English
Default                                  : No
Forced                                   : No
Text #1
ID                                       : 4
Format                                   : UTF-8
Codec ID                                 : S_TEXT/UTF8
Codec ID/Info                            : UTF-8 Plain Text
Title                                    : Full
Language                                 : English
Default                                  : No
Forced                                   : No
Text #2
ID                                       : 5
Format                                   : UTF-8
Codec ID                                 : S_TEXT/UTF8
Codec ID/Info                            : UTF-8 Plain Text
Title                                    : Full [SDH]
Language                                 : English
Default                                  : No
Forced                                   : No
by                                         :ddgroupclub.ru
Menu
00:00:00.000                             : en:00:00:00.000
00:07:40.877                             : en:00:07:40.877
00:12:25.370                             : en:00:12:25.370
00:15:26.217                             : en:00:15:26.217
00:22:49.868                             : en:00:22:49.868
00:28:41.136                             : en:00:28:41.136
00:31:07.074                             : en:00:31:07.074
00:36:42.617                             : en:00:36:42.617
00:42:54.614                             : en:00:42:54.614
00:48:54.974                             : en:00:48:54.974
00:56:57.039                             : en:00:56:57.039
01:07:00.225                             : en:01:07:00.225
01:14:33.010                             : en:01:14:33.010
01:18:17.067                             : en:01:18:17.067
01:23:42.226                             : en:01:23:42.226
01:33:15.548                             : en:01:33:15.548

Скриншоты:

Яндекс.Метрика
Рейтинг@Mail.ru