[ Сегодня на трекере фрилич! Идет свободное скачивание без начисления Download ]

Апперкот для Гитлера (Серии 1—4 из 4) (Денис Нейманд) [2016, военный, история, драма, HDTVRip]

 

Создавать темы 08-Май-2016 15:26

--Апперкот для Гитлера--
  • Год выпуска: 2016
  • Страна: Россия / «Талан»
  • Жанр: военный, история, драма
  • Продолжительность: 4 х ~00:43:00
  • Перевод: Не требуется-
  • Режиссёр: Денис Нейманд-
  • В ролях: Антон Момот, Андрей Лёвин, Полина Толстун, Сергей Барковский, Елена Симонова, Анатолий Дзиваев, Алексей Эйбоженко, Артур Харитоненко, Юрий Чулков...-
  • Основанная на реальных событиях история рассказывает об операции советской разведки по физическому устранению фюрера нацисткой Германии Адольфа Гитлера. Под видом дезертира-перебежчика на задание в Германию направляют выдающегося боксера и разведчика Игоря Миклашевского. Пережив дознания и пытки, Игорь становится личным «гладиатором» штандартенфюрера и азартного игрока Вальтера Шлосса.
    Нежные чувства к связной — француженке русского происхождения Анастасии Шуваловой — помогают Игорю играть роль «своего» в тылу врага. Побеждая одного соперника за другим, он приближается к высшему обществу Третьего Рейха, а вместе с тем и к своей главной цели — Адольфу Гитлеру.
    -
  • Премьера в России: 8 мая 2016--
  • --
  • Качество видео: HDTVRip
  • Формат видео: AVI
  • Видео кодек: XviD
  • Аудио кодек: AC3
  • Видео: 720x400 (1.80:1), 25.000 fps, XviD MPEG-4, ~1500 kbps avg, 0.208 bit/pixel
  • Аудио: 48.0 kHz, AC3 Dolby Digital, 2/0 (L,R) ch, ~192.00 kbps avg
  • Субтитры: нет
--

Media Info

General
Complete name : W:\O.S.A.\Торренты\Завершенные торренты\Apprekot.Dlja.Gitlera.2016.XviD.HDTVRip.by.GeneralFilm\Serija.01.avi
Format : AVI
Format/Info : Audio Video Interleave
File size : 542 MiB
Duration : 44mn 32s
Overall bit rate : 1 702 Kbps
Writing application : VirtualDubMod 1.5.10.3 | www.virtualdub-fr.org || (build 2550/release)
Writing library : VirtualDubMod build 2550/release
Video
ID : 0
Format : MPEG-4 Visual
Format profile : Advanced [email protected]
Format settings, BVOP : 1
Format settings, QPel : No
Format settings, GMC : No warppoints
Format settings, Matrix : Custom
Codec ID : XVID
Codec ID/Hint : XviD
Duration : 44mn 32s
Bit rate : 1 500 Kbps
Width : 720 pixels
Height : 400 pixels
Display aspect ratio : 16:9
Frame rate : 25.000 fps
Color space : YUV
Chroma subsampling : 4:2:0
Bit depth : 8 bits
Scan type : Progressive
Compression mode : Lossy
Bits/(Pixel*Frame) : 0.208
Stream size : 478 MiB (88%)
Writing library : XviD 73
Audio
ID : 1
Format : AC-3
Format/Info : Audio Coding 3
Mode extension : CM (complete main)
Codec ID : 2000
Duration : 44mn 32s
Bit rate mode : Constant
Bit rate : 192 Kbps
Channel(s) : 2 channels
Channel positions : Front: L R
Sampling rate : 48.0 KHz
Bit depth : 16 bits
Compression mode : Lossy
Stream size : 61.2 MiB (11%)
Alignment : Split accross interleaves
Interleave, duration : 40 ms (1.00 video frame)
Interleave, preload duration : 500 ms
--- --
Яндекс.Метрика
Рейтинг@Mail.ru