Кремниевая долина / Silicon Valley / Сезон: 3 / Серии: 1-2 (10) (Майк Джадж / Mike Judge) [2016 г., комедия, HDTVRip, 720p] DVO (Кубик в Кубе) + Original (Eng) + Sub (Eng) [Обновляемая]

 

Создавать темы 07-Май-2016 02:39

-Кремниевая долина / Silicon Valley
«Where Everyone Wants To Be An Icon»
(3 сезон)
-- Производство: США | HBO
Жанр: комедия
Год выпуска: 2016 г.
Продолжительность: 2x ~00:30:00Перевод: Профессиональный (двухголосый, закадровый) [Кубик в Кубе]
Оригинальный аудиопоток: английскийРежиссер: Майк Джадж / Mike Judge-В ролях: Томас Миддлдитч, ТиДжей Миллер, Джош Бренер, Мартин Старр, Кумэйл Нанджиани, Али Моджи, Аманда Крю, Зак Вудс, Кристофер Ивэн Уэлш, Мэтт Росс, ...-Описание: История о группе гиков, готовящих к запуску собственные стартапы в высокотехнологичном центре Сан-Франциско.
Главные герои сериала бесплатно проживают в доме местного миллионера, но взамен им придётся отдать по 10% прибыли от будущих проектов.
- -Качество видео: HDTVRip
Контейнер: MKV
Стандарт разрешения: 720p
Видео кодек: H.264/AVC
Аудио кодек: AC3
Видео: 1280x718, 23.976 fps, ~4000 Kbps avg
Аудио: Russian: 48 kHz, AC3, 3/2 (L,C,R,l,r) + LFE ch, ~384.00 kbps avg |Двухголосый закадровый, Кубик в Кубе| (ненормативная лексика!)
Аудио #2: English: 48 kHz, AC3, 3/2 (L,C,R,l,r) + LFE ch, ~384.00 kbps avgCубтитры: English

Список серий

01. Founder Friendly
02. Two in the Box

Media Info

Код:
Format                      : Matroska
Format version              : Version 4 / Version 2
File size                   : 1.09 GiB
Duration                    : 31mn 32s
Overall bit rate            : 4 945 Kbps
Movie name                  : Silicon Valley 03x01 (Founder Friendly)
Encoded date                : UTC 2016-04-28 18:25:44
Writing application         : mkvmerge v6.7.0 ('Back to the Ground') 64bit built on Jan  8 2014 15:10:52
Writing library             : libebml v1.3.0 + libmatroska v1.4.1Video
ID                          : 1
Format                      : AVC
Format/Info                 : Advanced Video Codec
Format profile              : [email protected]/*  */
Format settings, CABAC      : Yes
Format settings, ReFrames   : 9 frames
Codec ID                    : V_MPEG4/ISO/AVC
Duration                    : 31mn 32s
Bit rate                    : 4 078 Kbps
Width                       : 1 280 pixels
Height                      : 718 pixels
Display aspect ratio        : 16:9
Frame rate mode             : Constant
Frame rate                  : 23.976 fps
Color space                 : YUV
Chroma subsampling          : 4:2:0
Bit depth                   : 8 bits
Scan type                   : Progressive
Bits/(Pixel*Frame)          : 0.185
Stream size                 : 920 MiB (82%)
Title                       : Silicon Valley S03E01 720p HDTV DD5.1 x264-Chotab
Writing library             : x264 core 148 r2692 64f4e24
Encoding settings           : cabac=1 / ref=9 / deblock=1:-3:-3 / analyse=0x3:0x133 / me=umh / subme=10 / psy=1 / psy_rd=1.00:0.00 / mixed_ref=1 / me_range=32 / chroma_me=1 / trellis=2 / 8x8dct=1 / cqm=0 / deadzone=21,11 / fast_pskip=0 / chroma_qp_offset=-2 / threads=18 / lookahead_threads=3 / sliced_threads=0 / nr=0 / decimate=0 / interlaced=0 / bluray_compat=0 / constrained_intra=0 / bframes=8 / b_pyramid=2 / b_adapt=2 / b_bias=0 / direct=3 / weightb=1 / open_gop=0 / weightp=2 / keyint=240 / keyint_min=23 / scenecut=40 / intra_refresh=0 / rc_lookahead=60 / rc=crf / mbtree=0 / crf=16.5 / qcomp=0.60 / qpmin=0 / qpmax=69 / qpstep=4 / vbv_maxrate=62500 / vbv_bufsize=78125 / crf_max=0.0 / nal_hrd=none / filler=0 / ip_ratio=1.40 / pb_ratio=1.30 / aq=3:0.80
Language                    : English
Default                     : Yes
Forced                      : No
Color primaries             : BT.709
Transfer characteristics    : BT.709
Matrix coefficients         : BT.709
Color range                 : LimitedAudio #1
ID                          : 2
Format                      : AC-3
Format/Info                 : Audio Coding 3
Mode extension              : CM (complete main)
Format settings, Endianness : Big
Codec ID                    : A_AC3
Duration                    : 31mn 32s
Bit rate mode               : Constant
Bit rate                    : 384 Kbps
Channel(s)                  : 6 channels
Channel positions           : Front: L C R, Side: L R, LFE
Sampling rate               : 48.0 KHz
Bit depth                   : 16 bits
Compression mode            : Lossy
Stream size                 : 86.6 MiB (8%)
Title                       : KvK 5.1
Language                    : Russian
Default                     : Yes
Forced                      : NoAudio #2
ID                          : 3
Format                      : AC-3
Format/Info                 : Audio Coding 3
Mode extension              : CM (complete main)
Format settings, Endianness : Big
Codec ID                    : A_AC3
Duration                    : 31mn 32s
Bit rate mode               : Constant
Bit rate                    : 384 Kbps
Channel(s)                  : 2 channels
Channel positions           : Front: L R
Sampling rate               : 48.0 KHz
Bit depth                   : 16 bits
Compression mode            : Lossy
Stream size                 : 86.6 MiB (8%)
Title                       : English 5.1
Language                    : English
Default                     : No
Forced                      : NoText
ID                          : 4
Format                      : UTF-8
Codec ID                    : S_TEXT/UTF8
Codec ID/Info               : UTF-8 Plain Text
Title                       : Eng sub
Language                    : English
Default                     : No
Forced                      : No

Скриншот c названием фильма

Скриншоты

Яндекс.Метрика
Рейтинг@Mail.ru