[ Сегодня на трекере фрилич! Идет свободное скачивание без начисления Download ]

Дэдпул / Deadpool (2016) BDRip-AVC от New-Team | iTunes

 

Создавать темы 28-Апр-2016 12:21

Дэдпул
Deadpool
«Стань свидетелем, как он кончит»
Страна: США, Канада
Жанр: фантастика, боевик, комедия, приключения
Год выпуска: 2016
Продолжительность: 01:48:41
Перевод: Профессиональный (полное дублирование) [Лицензия iTunes]
Cубтитры: русские (форсированные, полные), украинские (форсированные, полные), английские (полные, SDH)
Оригинальная аудиодорожка: нет
Режиссер: Тим Миллер / Tim Miller
В ролях: Райан Рейнольдс, Морена Баккарин, Эд Скрейн, ТиДжей Миллер, Джина Карано, Брианна Хилдебранд, Стефан Капичич, Лесли Уггэмс, Джед Риис, Каран Сони, Майкл Беняер, Стайл Дэйн
Описание:
Уэйд Уилсон - наёмник. Будучи побочным продуктом программы вооружённых сил под названием «Оружие X», Уилсон приобрёл невероятную силу, проворство и способность к исцелению. Но страшной ценой: его клеточная структура постоянно меняется, а здравомыслие сомнительно. Всё, чего Уилсон хочет, - это держаться на плаву в социальной выгребной яме. Но течение в ней слишком быстрое.

Релиз:
Автор рипа: Stalker oK
Сэмпл
Качество видео: BDRip-AVC [HDCLUB / Blu-ray Remux / 1080p]
Формат видео: MKV
Видео кодек: AVC
Аудио кодек: AAC
Видео: 898 Кбит/сек, 764*320 (2,40:1), в 23,976 (24000/1001) кадра/сек, AVC
Аудио: русский, 64,0 Кбит/сек, 48,0 КГц / 24,0 КГц, 2 канала, AAC (HE-AAC / LC)
Навигация по главам: есть

MediaInfo

Общее
Уникальный идентификатор : 191056168266636059770349012286633964678 (0x8FBC145D8CCE57F6B9169C4A2CB87486)
Полное имя : M:1RipsDeadpoolHDDeadpool.2016.BDRip-AVC.Dub.745Mb.stalkerok.new-team.mkv
Формат : Matroska
Версия формата : Version 4 / Version 2
Размер файла : 746 Мбайт
Продолжительность : 1 ч. 48 м.
Общий поток : 964 Кбит/сек
Название фильма : Deadpool (2016) (New-Team) (Rip by Stalker oK)
Дата кодирования : UTC 2016-04-28 09:41:26
Программа кодирования : mkvmerge v8.6.1 ('Flying') 64bit
Библиотека кодирования : libebml v1.3.3 + libmatroska v1.4.4
Видео
Идентификатор : 1
Формат : AVC
Формат/Информация : Advanced Video Codec
Профиль формата : [email protected]
Параметр CABAC формата : Да
Параметр ReFrames формата : 16 кадров
Идентификатор кодека : V_MPEG4/ISO/AVC
Продолжительность : 1 ч. 48 м.
Битрейт : 898 Кбит/сек
Ширина : 764 пикселя
Высота : 320 пикселей
Соотношение сторон : 2,40:1
Режим частоты кадров : Постоянный
Частота кадров : 23,976 (24000/1001) кадра/сек
Цветовое пространство : YUV
Субдискретизация насыщенности : 4:2:0
Битовая глубина : 8 бит
Тип развёртки : Прогрессивная
Бит/(Пиксели*Кадры) : 0.153
Размер потока : 695 Мбайт (93%)
Заголовок : Deadpool (2016) (New-Team) (Rip by Stalker oK)
Библиотека кодирования : x264 core 148 r2665kMod a01e339
Настройки программы : cabac=1 / ref=16 / deblock=1:-3:-2 / analyse=0x3:0x133 / me=umh / subme=11 / psy=1 / fade_compensate=0.00 / psy_rd=1.00:0.05 / mixed_ref=1 / me_range=48 / chroma_me=1 / trellis=2 / 8x8dct=1 / cqm=0 / deadzone=21,11 / fast_pskip=0 / chroma_qp_offset=-3 / threads=10 / lookahead_threads=2 / sliced_threads=0 / nr=0 / decimate=0 / interlaced=0 / bluray_compat=0 / constrained_intra=0 / fgo=0 / bframes=16 / b_pyramid=2 / b_adapt=2 / b_bias=0 / direct=3 / weightb=1 / open_gop=0 / weightp=2 / keyint=240 / keyint_min=23 / scenecut=40 / intra_refresh=0 / rc_lookahead=60 / rc=2pass / mbtree=0 / bitrate=898 / ratetol=1.0 / qcomp=0.70 / qpmin=0 / qpmax=69 / qpstep=4 / cplxblur=20.0 / qblur=0.5 / vbv_maxrate=50000 / vbv_bufsize=62500 / nal_hrd=none / filler=0 / ip_ratio=1.40 / pb_ratio=1.30 / aq=3:0.95
Default : Да
Forced : Нет
Аудио
Идентификатор : 2
Формат : AAC
Формат/Информация : Advanced Audio Codec
Профиль формата : HE-AAC / LC
Идентификатор кодека : A_AAC
Продолжительность : 1 ч. 48 м.
Битрейт : 64,0 Кбит/сек
Каналы : 2 канала
Расположение каналов : Front: L R
Частота : 48,0 КГц / 24,0 КГц
Частота кадров : 23,438 кадра/сек (1024 spf)
Метод сжатия : С потерями
Задержка видео : 31 мс.
Размер потока : 49,5 Мбайт (7%)
Default : Да
Forced : Нет
Текст #1
Идентификатор : 3
Формат : UTF-8
Идентификатор кодека : S_TEXT/UTF8
Идентификатор кодека/Информация : UTF-8 Plain Text
Продолжительность : 1 ч. 33 м.
Битрейт : 0 бит/сек
Count of elements : 3
Размер потока : 136 байт (0%)
Заголовок : Forced, iTunes
Язык : Russian
Default : Да
Forced : Нет
Текст #2
Идентификатор : 4
Формат : UTF-8
Идентификатор кодека : S_TEXT/UTF8
Идентификатор кодека/Информация : UTF-8 Plain Text
Продолжительность : 1 ч. 47 м.
Битрейт : 87 бит/сек
Count of elements : 1404
Размер потока : 68,8 Кбайт (0%)
Заголовок : iTunes
Язык : Russian
Default : Нет
Forced : Нет
Текст #3
Идентификатор : 5
Формат : UTF-8
Идентификатор кодека : S_TEXT/UTF8
Идентификатор кодека/Информация : UTF-8 Plain Text
Продолжительность : 1 ч. 47 м.
Битрейт : 0 бит/сек
Count of elements : 13
Размер потока : 591 байт (0%)
Заголовок : Forced, iTunes
Язык : Ukrainian
Default : Нет
Forced : Нет
Текст #4
Идентификатор : 6
Формат : UTF-8
Идентификатор кодека : S_TEXT/UTF8
Идентификатор кодека/Информация : UTF-8 Plain Text
Продолжительность : 1 ч. 47 м.
Битрейт : 92 бит/сек
Count of elements : 1420
Размер потока : 73,0 Кбайт (0%)
Заголовок : iTunes
Язык : Ukrainian
Default : Нет
Forced : Нет
Текст #5
Идентификатор : 7
Формат : UTF-8
Идентификатор кодека : S_TEXT/UTF8
Идентификатор кодека/Информация : UTF-8 Plain Text
Продолжительность : 1 ч. 44 м.
Битрейт : 58 бит/сек
Count of elements : 1572
Размер потока : 44,9 Кбайт (0%)
Заголовок : Full
Язык : English
Default : Нет
Forced : Нет
Текст #6
Идентификатор : 8
Формат : UTF-8
Идентификатор кодека : S_TEXT/UTF8
Идентификатор кодека/Информация : UTF-8 Plain Text
Продолжительность : 1 ч. 47 м.
Битрейт : 63 бит/сек
Count of elements : 1853
Размер потока : 50,5 Кбайт (0%)
Заголовок : SDH
Язык : English
Default : Нет
Forced : Нет
Меню
00:00:00.000 : en:Chapter 1
00:03:04.725 : en:Chapter 2
00:05:53.019 : en:Chapter 3
00:09:30.820 : en:Chapter 4
00:13:19.089 : en:Chapter 5
00:16:48.716 : en:Chapter 6
00:20:12.544 : en:Chapter 7
00:22:06.407 : en:Chapter 8
00:27:09.626 : en:Chapter 9
00:31:58.958 : en:Chapter 10
00:36:51.708 : en:Chapter 11
00:41:06.172 : en:Chapter 12
00:44:45.766 : en:Chapter 13
00:46:56.605 : en:Chapter 14
00:50:10.965 : en:Chapter 15
00:53:18.027 : en:Chapter 16
00:55:33.038 : en:Chapter 17
00:59:07.751 : en:Chapter 18
01:03:05.239 : en:Chapter 19
01:07:06.438 : en:Chapter 20
01:09:15.568 : en:Chapter 21
01:12:29.720 : en:Chapter 22
01:16:46.393 : en:Chapter 23
01:20:43.712 : en:Chapter 24
01:25:53.398 : en:Chapter 25
01:31:03.791 : en:Chapter 26
01:34:46.970 : en:Chapter 27
01:39:52.735 : en:Chapter 28

Яндекс.Метрика
Рейтинг@Mail.ru