[ Сегодня на трекере фрилич! Идет свободное скачивание без начисления Download ]

Бэтмен против Супермена: На заре справедливости / Batman v Superman: Dawn of Justice (2016) TC [H.264/720p-LQ] [Звук с TS]

 

Создавать темы 28-Апр-2016 07:28

-Бэтмен против Супермена: На заре справедливости / Batman v Superman: Dawn of Justice (2016) TC [H.264/720p-LQ] [Звук с TS] - Год выпуска: 2016
Производство: США / DC Entertainment, Dune Entertainment, Syncopy
Жанр: фантастика, боевик
Режиссер: Зак Снайдер
Актеры: Генри Кавилл, Бен Аффлек, Галь Гадот, Джейсон Момоа, Эми Адамс, Джесси Айзенберг, Джена Мэлоун, Эзра Миллер, Дайан Лэйн, Джереми Айронс
Описание: Опасаясь, что действия богоподобного супергероя так и останутся бесконтрольными, грозный и могущественный страж Готэм Сити бросает вызов самому почитаемому в наши дни спасителю Метрополиса, в то время как весь остальной мир решает, какой герой ему по-настоящему нужен. И пока Бэтмен и Супермен пребывают в состоянии войны друг с другом, возникает новая угроза, которая ставит человечество под самую большую опасность, с которой оно когда-либо сталкивалось.-Возраст: 16+ (зрителям, достигшим 16 лет)
Рейтинг MPAA: PG-13 (детям до 13 лет просмотр нежелателен)
Дата мировой премьеры: 23 марта 2016
Дата российской премьеры: 25 марта 2016

Продолжительность: 02:31:25
Качество видео: TC
Перевод: Дублированный (звук с TS)
Субтитры: Корейские (вшитые, неотключаемые)
Реклама: Отсутствует
Видео: AVC, 1280x530 (2.40:1), 29.970 fps, 3 200 Kbps (0.157 bit/pixel)
Аудио: AC-3, 48.0 KHz, 2 ch, 128 Kbps, CBR

MediaInfo

Формат                                   : Matroska
Версия формата                           : Version 4 / Version 2
Размер файла                             : 3,51 Гбайт
Продолжительность                        : 2 ч. 31 м.
Общий поток                              : 3320 Кбит/сек
Дата кодирования                         : UTC 2016-04-27 21:49:28
Программа кодирования                    : mkvmerge v8.3.0 ("Over the Horizon") 64bit
Библиотека кодирования                   : libebml v1.3.1 + libmatroska v1.4.2
DURATION                                 : 02:31:25.728000000
NUMBER_OF_FRAMES                         : 283929
NUMBER_OF_BYTES                          : 145371648
_STATISTICS_WRITING_APP                  : mkvmerge v8.3.0 ("Over the Horizon") 64bit
_STATISTICS_WRITING_DATE_UTC             : 2016-04-27 21:49:28
_STATISTICS_TAGS                         : BPS DURATION NUMBER_OF_FRAMES NUMBER_OF_BYTES
Видео
Идентификатор                            : 1
Формат                                   : AVC
Формат/Информация                        : Advanced Video Codec
Профиль формата                          : [url=mailto:[email protected]][email protected][/url]
Параметр CABAC формата                   : Да
Параметр ReFrames формата                : 4 кадра
Идентификатор кодека                     : V_MPEG4/ISO/AVC
Продолжительность                        : 2 ч. 31 м.
Битрейт                                  : 3200 Кбит/сек
Ширина                                   : 1280 пикселей
Высота                                   : 530 пикселей
Соотношение сторон                       : 2,40:1
Режим частоты кадров                     : Постоянный
Частота кадров                           : 29,970 кадров/сек
Цветовое пространство                    : YUV
Субдискретизация насыщенности            : 4:2:0
Битовая глубина                          : 8 бит
Тип развёртки                            : Прогрессивная
Бит/(Пиксели*Кадры)                      : 0.157
Размер потока                            : 3,31 Гбайт (94%)
Библиотека кодирования                   : x264 core 148 r2665 a01e339
Настройки программы                      : cabac=1 / ref=4 / deblock=1:-3:-3 / analyse=0x3:0x133 / me=umh / subme=7 / psy=1 / psy_rd=1.10:0.10 / mixed_ref=1 / me_range=32 / chroma_me=1 / trellis=1 / 8x8dct=1 / cqm=0 / deadzone=21,11 / fast_pskip=0 / chroma_qp_offset=-3 / threads=12 / lookahead_threads=3 / sliced_threads=0 / nr=0 / decimate=0 / interlaced=0 / bluray_compat=0 / constrained_intra=0 / bframes=6 / b_pyramid=2 / b_adapt=2 / b_bias=0 / direct=3 / weightb=1 / open_gop=0 / weightp=2 / keyint=240 / keyint_min=24 / scenecut=40 / intra_refresh=0 / rc_lookahead=120 / rc=abr / mbtree=1 / bitrate=3200 / ratetol=1.0 / qcomp=0.70 / qpmin=0 / qpmax=69 / qpstep=4 / ip_ratio=1.10 / aq=1:0.90
Default                                  : Да
Forced                                   : Нет
Аудио
Идентификатор                            : 2
Формат                                   : AC-3
Формат/Информация                        : Audio Coding 3
Расширение режима                        : CM (complete main)
Параметр Endianness формата              : Big
Идентификатор кодека                     : A_AC3
Продолжительность                        : 2 ч. 31 м.
Вид битрейта                             : Постоянный
Битрейт                                  : 128 Кбит/сек
Каналы                                   : 2 канала
Расположение каналов                     : Front: L R
Частота                                  : 48,0 КГц
Битовая глубина                          : 16 бит
Метод сжатия                             : С потерями
Размер потока                            : 139 Мбайт (4%)
Язык                                     : Russian
Default                                  : Да
Forced                                   : Нет

Дополнительная информация

  • В основу фильма легли комиксы «Batman: The Dark Knight Returns» (Бэтмен: Возвращение Темного рыцаря), «Kingdom Come» (Второе пришествие) и «Batman: Noel» (Бэтмен: Рождество).
  • Рабочим названием фильма было «Сейдж и Майло» (Sage & Milo).
  • Название фильма является отсылкой к «Лиге справедливости».
  • Работу над фильмом начал Эндрю Кевин Уокер еще в августе 2001 года. Вольфганг Петерсен рассматривался на место режиссера, а Акива Голдсман — на место сценариста. По сценарию Голдсмана Джокер убивал невесту Брюса Уэйна, после чего Уэйн начинал буйствовать на почве мести, и в результате у них развивался конфликт с Суперменом, который пытался его остановить. Затем проект был заморожен, но в фильме «Я — легенда» (2007), сценаристом которого является Голдсман, в открывающей сцене, на стене одного из зданий зрители заметили плакат — знак Супермена на фоне знака Бэтмена.
  • Ранее Бен Аффлек и Дайан Лэйн вместе снимались в фильме «Смерть супермена» (2006), где Аффлек сыграл Джорджа Ривза, актера известного по роли Супермена на телевидении.
  • Джош Бролин, Райан Гослинг, Мэттью Гуд, Ричард Армитедж, Макс Мартини, Арми Хаммер, Дженсен Эклс и Джо Манганьелло рассматривались на роль Бэтмена, прежде чем ее получил Бен Аффлек.
  • Сразу после того как выяснилось, что роль Бэтмена досталась Бену Аффлеку, он стал ежедневно проводить по два часа в тренажерном зале, чтобы набрать необходимую физическую форму для своей роли.
  • Джейми Александер, Ольга Куриленко и Элоди Юнг прослушивались на роль Чудо Женщины прежде, чем она отошла Галь Гадот.
  • Марк Стронг, Дензел Вашингтон, Идрис Эльба, Адам Драйвер и Хоакин Феникс рассматривались на роль Лекса Лютора, прежде чем она досталась Джесси Айзенбергу.
  • Люси Гриффитс рассматривали на роль Чудо Женщины.
  • Тимоти Далтон рассматривался на роль Альфреда.
  • Галь Гадот – первая неамериканская актриса, исполнившая роль Чудо Женщины.
  • Джейсону Момоа предлагали роль Думсдэя.
  • Адам Драйвер, Пенн Бэджли и Эзра Миллер прослушивались на роль Найтвинга — союзника Бэтмена.
Скриншоты:
-Время раздачи: 24/7. До первых 5 скачавших.

Создавать темы 17-Май-2016 14:47 (спустя 19 дней)

This torrent need some seeds ......................please seed
Яндекс.Метрика
Рейтинг@Mail.ru