Кровавый округ: 1980 / Красный райдинг: 1980 / Red Riding: In the Year of Our Lord 1980 (Джеймс Марш / James Marsh) [2009 г., драма, криминал, детектив, HDRip] MVO + MVO + DVO

 

Создавать темы 27-Апр-2016 02:41

-Кровавый округ: 1980 / Красный райдинг: 1980 / Red Riding: In the Year of Our Lord 1980-- Производство: Великобритания, Channel Four Film, Lip Sync Productions, Revolution Films, Screen Yorkshire
Год выпуска: 2009 г.
Жанр: драма, криминал, детектив
Продолжительность: 01:37:29Мировая премьера: 28 февраля 2009
Перевод: Профессиональный (многоголосый, закадровый) [R5]
Перевод 2: Профессиональный (многоголосый, закадровый) [СТС]
Перевод 3: Профессиональный (двухголосый, закадровый) [НТВ+]
Режиссер: Джеймс Марш / James Marsh-В ролях: Уоррен Кларк, Пэдди Консидайн, Джеймс Фокс, Дэвид Колдер, Николас Вудесон, Рон Кук, Максин Пик, Тони Питтс, Джим Картер, Дэвид Моррисси-Описание: 1980 год. Вот уже 6 лет в Йоркшире свирепствует маньяк, убивающий молодых женщин. Жители напуганы, в то время как полиция, практически бездействуя, ни на шаг не приблизилась к поимке «Йоркширского Потрошителя». Для проведения тайного расследования действий полиции Йоркшира приглашен помощник начальника полиции Манчестера Питер Хантер. По мере продвижения следствия Хантер все больше убеждается в том, что все это как-то связано с убийствами в клубе «Карачи» в 1974 году…-
Качество видео: HDRip
Контейнер: AVI
Видео кодек: XviD
Аудио кодек: AC3
Видео: 720x304 (2.37:1), 23.976 fps, XviD MPEG-4 ~2355 kbps avg, 0.45 bit/pixel
Аудио: 48 kHz, AC3 Dolby Digital, 3/2 (L,C,R,l,r) + LFE ch, ~448 kbps - Профессиональный (многоголосый закадровый) R5
Аудио #2: 48 kHz, AC3 Dolby Digital, 2/0 (L,R) ch, ~192 kbps - Профессиональный (многоголосый закадровый) СТС
Аудио #3: 48 kHz, AC3 Dolby Digital, 2/0 (L,R) ch, ~192 kbps - Профессиональный (многоголосый закадровый) НТВ+Cубтитры: отсутствуют

Доп. информация

Во втором эпизоде расследуются убийства Йоркширского потрошителя, а также показана полицейская коррупция.

Рецензия

Жестко. Реалистично. Безысходно
К просмотру второй части трилогии я приступала с вопросом, оставшимся как послевкусие от первой картины — можно ли что-то изменить и стоит ли. С момента предыдущих событий прошло шесть лет, новый герой — Питер Хантер, которому предложили провести расследование зверских убийств молодых женщин, которые происходят в Йоркшире уже много лет. Питер приезжает со своей командой, и это его второй приезд сюда, ведь шесть лет назад он участвовал в расследовании событий, произошедших в клубе «Карачи», но вынужден был уехать тогда ни с чем.
Поэтому новое расследование важно для его собственного реноме.
С самого начала все идет не так, как он рассчитывал — палки в колеса, неявные угрозы, личные проблемы, мешают ведению расследования. Но Питер не повернет назад и не выберет легкий путь, который ему предложат. Йоркшир потребует новую жертву.
Если первый фильм оставил легкое ощущение депрессии, то этот привел к чувству безысходности. При этом он также очень реалистичен и интересен. И ты ждешь третьего с вопросом, а как все закончится. Найдется ли герой, который переломит ситуацию, не сломав себя. Найдутся ли люди, которым будет важно кто это сделал и сделать это имя достоянием общественности, а главное — какова была предыстория всего этого, ведь причины часто говорят больше, чем последствия.

Media Info

Формат : AVI
Формат/Информация : Audio Video Interleave
Профиль формата : OpenDML
Размер файла : 2,18 Гбайт
Продолжительность : 1 ч. 37 м.
Общий поток : 3195 Кбит/сек
Название фильма : Red Riding: 1980.2009.[pirat.ca]
Программа кодирования : VirtualDubMod 1.5.10.2 (build 2540/release)Видео
Идентификатор : 0
Формат : MPEG-4 Visual
Профиль формата : Advanced [email protected]/* */
Параметр BVOP формата : 2
Параметр QPel формата : Нет
Параметр GMC формата : Без точки перехода
Параметр матрицы формата : Default (MPEG)
Идентификатор кодека : XVID
Идентификатор кодека/Подсказка : XviD
Продолжительность : 1 ч. 37 м.
Битрейт : 2339 Кбит/сек
Ширина : 720 пикселей
Высота : 304 пикселя
Соотношение сторон : 2,35:1
Частота кадров : 23,976 (24000/1001) кадра/сек
Цветовое пространство : YUV
Субдискретизация насыщенности : 4:2:0
Битовая глубина : 8 бит
Тип развёртки : Прогрессивная
Метод сжатия : С потерями
Бит/(Пиксели*Кадры) : 0.446
Размер потока : 1,59 Гбайт (73%)
Библиотека кодирования : XviD 1.1.0 (UTC 2005-11-22)Аудио #1
Идентификатор : 1
Формат : AC-3
Формат/Информация : Audio Coding 3
Расширение режима : CM (complete main)
Параметр Endianness формата : Big
Идентификатор кодека : 2000
Продолжительность : 1 ч. 37 м.
Вид битрейта : Постоянный
Битрейт : 448 Кбит/сек
Каналы : 6 каналов
Расположение каналов : Front: L C R, Side: L R, LFE
Частота : 48,0 КГц
Частота кадров : 31,250 кадров/сек (1536 spf)
Метод сжатия : С потерями
Размер потока : 312 Мбайт (14%)
Выравнивание : Разделение по промежуткам
Продолжительность промежутка : 42 мс. (1,00 видеокадр)
Время предзагрузки промежутка : 500 мс.
Заголовок : Профессиональный (многоголосый закадровый) R5Аудио #2
Идентификатор : 2
Формат : AC-3
Формат/Информация : Audio Coding 3
Расширение режима : CM (complete main)
Параметр Endianness формата : Big
Идентификатор кодека : 2000
Продолжительность : 1 ч. 37 м.
Вид битрейта : Постоянный
Битрейт : 192 Кбит/сек
Каналы : 2 канала
Расположение каналов : Front: L R
Частота : 48,0 КГц
Частота кадров : 31,250 кадров/сек (1536 spf)
Метод сжатия : С потерями
Размер потока : 134 Мбайт (6%)
Выравнивание : Разделение по промежуткам
Продолжительность промежутка : 42 мс. (1,00 видеокадр)
Время предзагрузки промежутка : 500 мс.
Заголовок : Профессиональный (многоголосый закадровый) СТСАудио #3
Идентификатор : 3
Формат : AC-3
Формат/Информация : Audio Coding 3
Расширение режима : CM (complete main)
Параметр Endianness формата : Big
Идентификатор кодека : 2000
Продолжительность : 1 ч. 37 м.
Вид битрейта : Постоянный
Битрейт : 192 Кбит/сек
Каналы : 2 канала
Расположение каналов : Front: L R
Частота : 48,0 КГц
Частота кадров : 31,250 кадров/сек (1536 spf)
Метод сжатия : С потерями
Размер потока : 134 Мбайт (6%)
Выравнивание : Разделение по промежуткам
Продолжительность промежутка : 42 мс. (1,00 видеокадр)
Время предзагрузки промежутка : 500 мс.
Заголовок : Профессиональный (многоголосый закадровый) НТВ+

Скриншот c названием фильма

Скриншоты

Трейлер

Яндекс.Метрика
Рейтинг@Mail.ru