Лунная афера / Moonwalkers (Антуан Бардо-Жаке / Antoine Bardou-Jacquet) [2015 г., комедия, BDRip] Dub

 

Создавать темы 27-Апр-2016 02:38

-Лунная афера / Moonwalkers-- Производство: Франция, Nexus Factory, Partizan Films, Potemkino, Schmooze
Год выпуска: 2015 г.
Жанр: комедия
Продолжительность: 01:36:22Мировая премьера: 14 марта 2015
Российская премьера: 25 февраля 2016, «Парадиз»
Дата выхода DVD: 25 апреля 2016, «Парадиз Медиа»
Перевод: Профессиональный (полное дублирование) [Лицензия R5]
Режиссер: Антуан Бардо-Жаке / Antoine Bardou-Jacquet-В ролях: Руперт Гринт (Jonny), Рон Перлман (Kidman), Роберт Шиэн (Leon), Стивен Кэмпбелл Мур (Derek Kaye), Том Ауденарт (Renatus), Кевин Бишоп (Paul), Эрик Лёмпарт (Glen), Эрика Сэйнт (Ella), Джей Бенедикт (Colonel Dickford), Джон Фландерс (CIA Agent Murphy), Дэн Пул (Hells Angel), Эндрю Блюменталь (Kozinsky)-Описание: Тайный агент ЦРУ отправляется в Лондон, чтобы разыскать там Стэнли Кубрика и заказать ему фильм про высадку астронавтов на лунную поверхность на случай провала реальной миссии. Но вместо Кубрика агент нарывается на афериста Джонни, который устраивает съемки сверхсекретного видео на стремной студии порнофильмов, где невесомость достигается благодаря крепкому косяку...-
Качество видео: BDRip
Контейнер: AVI
Видео кодек: XviD
Аудио кодек: AC3
Видео: 720x304 (2.37:1), 23.976 fps, XviD build 73 ~1713 kbps avg, 0.33 bit/pixel
Аудио: 48 kHz, AC3 Dolby Digital, 3/2 (L,C,R,l,r) + LFE ch, ~448 kbps
Лицензия: BDRip | исх. Moonwalkers 2015 BluRay 1080p AVC TrueHD5 1 |Cубтитры: отсутствуют

Доп. информация

Этот художественный фильм является второй совместной работой Роберта Шиэна и Руперта Гринта.
Первой совместной работой Роберта Шиэна и Руперта Гринта стал фильм «Вишнёвая бомба» (2009).

Рецензия

Страдающего от посттравматического синдрома агента, ЦРУ отправляет с «планом Б» в Лондон, чтобы он нанял Кубрика снять видео высадки на Луну. В результате кучи совпадений фильм ему пришлось снимать с помощью парочки жуликов.
Это вам не «Арго», здесь не только содержание звучит как анекдот, но и снимался примерно он же. Режиссёр-дебютант Антуан Бардо-Жаке вовсю издевается над известной конспирологической теорией с помощью едких шуточек, ностальгии по 60-ым и кровавым приёмчикам в стиле Гая Ричи. По большому счёту, всё это не очень хорошо стыкуется, даже рейтинг «R» не спасает, но кино получилось энергичное и забавное. Я над этим бардаком с удовольствием поржала. К тому же Рон Перлман и Руперт Гринт тут многое на себе вытягивают.
Слегка на «Ультраамериканцев» смахивает вот этой неудачной склейкой жанров и попыткой постебать теории заговора
7 из 10

Media Info

Формат : AVI
Формат/Информация : Audio Video Interleave
Размер файла : 1,46 Гбайт
Продолжительность : 1 ч. 36 м.
Общий поток : 2171 Кбит/сек
Название фильма : Lunnaya.afera.2015.D.BDRip.1.46Gb.[pirat.ca] / Lunnaya.afera.2015.L2.BDRip.1.46Gb_by_Twi7ter
Режиссёр : Twi7ter
Жанр : Comedy / Comedy
Программа кодирования : VirtualDubMod 1.5.10.3 (build 2550/release)
Формат оригинала/Имя : Movie / MovieВидео
Идентификатор : 0
Формат : MPEG-4 Visual
Профиль формата : Advanced [email protected]/* */
Параметр BVOP формата : 2
Параметр QPel формата : Нет
Параметр GMC формата : Без точки перехода
Параметр матрицы формата : Выборочная
Идентификатор кодека : XVID
Идентификатор кодека/Подсказка : XviD
Продолжительность : 1 ч. 36 м.
Битрейт : 1714 Кбит/сек
Ширина : 720 пикселей
Высота : 304 пикселя
Соотношение сторон : 2,35:1
Частота кадров : 23,976 (24000/1001) кадра/сек
Цветовое пространство : YUV
Субдискретизация насыщенности : 4:2:0
Битовая глубина : 8 бит
Тип развёртки : Прогрессивная
Метод сжатия : С потерями
Бит/(Пиксели*Кадры) : 0.327
Размер потока : 1,15 Гбайт (79%)
Библиотека кодирования : XviD 73Аудио
Идентификатор : 1
Формат : AC-3
Формат/Информация : Audio Coding 3
Расширение режима : CM (complete main)
Параметр Endianness формата : Big
Идентификатор кодека : 2000
Продолжительность : 1 ч. 36 м.
Вид битрейта : Постоянный
Битрейт : 448 Кбит/сек
Каналы : 6 каналов
Расположение каналов : Front: L C R, Side: L R, LFE
Частота : 48,0 КГц
Частота кадров : 31,250 кадров/сек (1536 spf)
Метод сжатия : С потерями
Размер потока : 309 Мбайт (21%)
Выравнивание : Соединение по промежуткам
Продолжительность промежутка : 42 мс. (1,00 видеокадр)
Время предзагрузки промежутка : 512 мс.

Скриншот c названием фильма

Скриншоты

Трейлер

Яндекс.Метрика
Рейтинг@Mail.ru