[ Сегодня на трекере фрилич! Идет свободное скачивание без начисления Download ]

Они нашли Ад (ТВ) / They Found Hell (Ник Лион / Nick Lyon) [2015 г., ужасы, фантастика, фэнтези, приключения, WEB-DLRip] MVO

 

Создавать темы 27-Апр-2016 02:35

-Они нашли Ад (ТВ) / They Found Hell-- Производство: США, Cinetel Films, Foley Walkers Studio
Год выпуска: 2015 г.
Жанр: ужасы, фантастика, фэнтези, приключения
Продолжительность: 01:27:13Мировая премьера: 17 октября 2015
Перевод: Профессиональный (многоголосый, закадровый) [iTunes]
Режиссер: Ник Лион / Nick Lyon-В ролях: Кэбби Бордерс, Мирела Берк, Хантер Канеди, Горан Ганчев, Джеймс Собол Келли, Златето Керемедчиева, Иван Костадинов, Лори Кинастон, Надя Полякова, Кэти Рис-Описание: После случайного открытия портала в другое измерение студенты колледжа оказываются в ловушке, где за ними охотятся обитатели ада.-
Качество видео: WEB-DLRip
Контейнер: AVI
Видео кодек: XviD
Аудио кодек: MP3
Видео: 688x384 (1.79:1), 23.976 fps, XviD build 73 ~1052 kbps avg, 0.17 bit/pixel
Аудио: 48 kHz, MPEG Layer 3, 2 ch, ~128.00 kbps avg
Cубтитры: отсутствуют

Рецензия

Рецензия N3, или «Как в Омске нашли портал в Ад»
Слово» случайность» не всегда ассоциируется с неудачей. Сегодняшним утром она помогла мне отыскать эту обделенную вниманием зрителя кинокартину. Прочитав довольно скудное описание и посмотрев невнятный трейлер, я приступила к ее просмотру.
Сюжет
Группа довольно симпатичных ребят и девчонок исследует различные измерения, их искажение. Вдоволь наигравшись с техникой, студенты случайно открывают портал в потусторонний мир. И, Вы даже не догадаетесь, их засосало в этот» адский унитаз». Там их ждала чреда из приятных и не очень событий…
Признаться, я ожидала увидеть подобный сценарий в фильме» Врата тьмы» с участием великолепного Николаса Кейнджа, но мои надежды не оправдались… А вот» Они нашли Ад» мне очень понравился. Большая дань режиссеру за свежую идею.
В этом фильме хороша не только идея, но и ее реализация. Ад здесь представлен безумным полотном, сотканным из обрывков человеческих ночных кошмаров. Его пространство хаотично, пестро, не поддается никакой закономерности. Здесь можно увидеть и развалины советского Чернобыля, и туманный лес, и заброшенный католический храм, и жуткую комнату с повешенными. Картина сумбурно меняется, не оставляя зрителю шанса понять, что же происходит. В этом и есть суть Ада. Его не может постигнуть человеческий разум.
Также очень порадовало наличие сцены, взятой из» Божественной комедии» Данте, — лес, состоящий из тел грешников.
И конечно, Харон был великолепен.
Игра актеров
Актерский состав не может похвастаться звездами, но это не делает фильм плохим. Актерская игра довольно крепкая, не выглядит слишком неестественной. Особенно понравился парень, играющий Уоррена. Он потрясающе передел боль и отчаянье своего героя, когда тот превращался в чудовище.
Спецэффекты
Данный фильм можно рекомендовать большинству любителей ужасов, так как их порадуют довольно разнообразные и красивые монстры. Конечно, твари сделаны не идеально, но для средней картины они очень даже хороши.
Музыкальное сопровождение
А вот здесь создатели фильма очень постарались. Музыки в фильме не слишком много, но моменты, в которых она играет, и само ее звучание сливаются в нечто волнующее, напряженное и пугающее. Любителям японских композиторов, пишущих саунтреки для хорроров, должно понравится.
Заключение
Так что же мы имеем ? Достаточно крепкую работу, не обремененную лишними диалогами и смыслом. Создатели данной картины использовали весь свой бюджет с максимальной выгодой, и у них получился интересный, напряженный фильм.
6 из 10

Media Info

Формат : AVI
Формат/Информация : Audio Video Interleave
Размер файла : 742 Мбайт
Продолжительность : 1 ч. 27 м.
Общий поток : 1190 Кбит/сек
Название фильма : They.Found.Hell.2015.WEB-DLRip.[pirat.ca]
Программа кодирования : VirtualDubMod 1.5.10.3 | www.virtualdub-fr.org || (build 2550/release)Видео
Идентификатор : 0
Формат : MPEG-4 Visual
Профиль формата : Advanced [email protected]/* */
Параметр BVOP формата : 2
Параметр QPel формата : Нет
Параметр GMC формата : Без точки перехода
Параметр матрицы формата : Выборочная
Идентификатор кодека : XVID
Идентификатор кодека/Подсказка : XviD
Продолжительность : 1 ч. 27 м.
Битрейт : 1053 Кбит/сек
Ширина : 688 пикселей
Высота : 384 пикселя
Соотношение сторон : 16:9
Частота кадров : 23,976 (23976/1000) кадра/сек
Цветовое пространство : YUV
Субдискретизация насыщенности : 4:2:0
Битовая глубина : 8 бит
Тип развёртки : Прогрессивная
Метод сжатия : С потерями
Бит/(Пиксели*Кадры) : 0.166
Размер потока : 657 Мбайт (88%)
Библиотека кодирования : XviD 73Аудио
Идентификатор : 1
Формат : MPEG Audio
Версия формата : Version 1
Профиль формата : Layer 3
Идентификатор кодека : 55
Идентификатор кодека/Подсказка : MP3
Продолжительность : 1 ч. 27 м.
Вид битрейта : Постоянный
Битрейт : 128 Кбит/сек
Каналы : 2 канала
Частота : 48,0 КГц
Метод сжатия : С потерями
Размер потока : 79,9 Мбайт (11%)
Выравнивание : Соединение по промежуткам
Продолжительность промежутка : 42 мс. (1,00 видеокадр)
Время предзагрузки промежутка : 504 мс.
Библиотека кодирования : LAME3.99r
Настройки программы : -m s -V 4 -q 2 -lowpass 17 -b 128

Скриншот c названием фильма

Скриншоты

Трейлер

Яндекс.Метрика
Рейтинг@Mail.ru