Герой (2016) WEB-DL 720p

 

Создавать темы 25-Апр-2016 09:04

- Герой (2016) WEB-DL [H.264/720p] «С верой за Россию»- Производство: Россия, Фонд кино
Жанр: Драма, военный
Режиссер: Юрий Васильев
Актеры: Дима Билан, Светлана Иванова, Александр Балуев, Татьяна Лютаева, Юлия Пересильд, Александр Головин, Марат Башаров, Александр Адабашьян, Лилита Озолиня, Александр Васильев
Описание:
Начало ХХ века. Юная княжна Вера Чернышева и поручик Андрей Долматов знакомятся при весьма странных обстоятельствах. Симпатия, любовь… впереди, казалось, счастливая жизнь. И вдруг — катастрофа. Первая мировая война уводит его на фронт, а ее — медсестрой в госпиталь. Мир перевернулся, он охвачен ненавистью, злобой, жаждой власти. Одна война сменяет другую. Люди делятся на два враждующих лагеря, начинают судить друг друга, чинить жестокую расправу. Огонь времени губит все на своем пути, но любовь — бессмертна, она соединяет несколько поколений и напоминает о себе спустя сто лет.
Возраст: 16+ (зрителям, достигшим 16 лет)
Дата премьеры в РФ: 31 марта 2016, «Каропрокат»

Продолжительность: 01:16:08
Качество видео: WEB-DL
Перевод: Не требуется (iTunes)
Субтитры: Отсутствуют
Видео: AVC, [email protected] (2.40:1), 25.000 fps, 4 123 Kbps (0.320 bit/pixel)
Аудио: AC-3, 48.0 KHz, 6 ch, 384 Kbps, CBR

Mediainfo:

Формат : Matroska
Версия формата : Version 2
Размер файла : 2,45 Гбайт
Продолжительность : 1 ч. 16 м.
Общий поток : 4598 Кбит/сек
Дата кодирования : UTC 2016-04-24 21:40:21
Программа кодирования : mkvmerge v8.3.0 ("Over the Horizon") 64bit
Библиотека кодирования : libebml v1.3.1 + libmatroska v1.4.2
DURATION : 01:16:08.064000000
NUMBER_OF_FRAMES : 142752
NUMBER_OF_BYTES : 219267072
_STATISTICS_WRITING_APP : mkvmerge v8.3.0 ("Over the Horizon") 64bit
_STATISTICS_WRITING_DATE_UTC : 2016-04-24 21:40:21
_STATISTICS_TAGS : BPS DURATION NUMBER_OF_FRAMES NUMBER_OF_BYTES
Видео
Идентификатор : 1
Формат : AVC
Формат/Информация : Advanced Video Codec
Профиль формата : [url=mailto:[email protected]][email protected][/url]
Параметр CABAC формата : Нет
Параметр ReFrames формата : 2 кадра
Идентификатор кодека : V_MPEG4/ISO/AVC
Продолжительность : 1 ч. 16 м.
Битрейт : 4123 Кбит/сек
Ширина : 960 пикселей
Высота : 536 пикселей
Соотношение сторон : 2,40:1
Режим частоты кадров : Постоянный
Частота кадров : 25,000 кадров/сек
Цветовое пространство : YUV
Субдискретизация насыщенности : 4:2:0
Битовая глубина : 8 бит
Тип развёртки : Прогрессивная
Бит/(Пиксели*Кадры) : 0.320
Размер потока : 2,19 Гбайт (90%)
Язык : English
Default : Да
Forced : Нет
Цветовой диапазон : Limited
Основные цвета : BT.709
Характеристики трансфера : BT.709
Коэффициенты матрицы : BT.709
Аудио
Идентификатор : 2
Формат : AC-3
Формат/Информация : Audio Coding 3
Расширение режима : CM (complete main)
Параметр Endianness формата : Big
Идентификатор кодека : A_AC3
Продолжительность : 1 ч. 16 м.
Вид битрейта : Постоянный
Битрейт : 384 Кбит/сек
Каналы : 6 каналов
Расположение каналов : Front: L C R, Side: L R, LFE
Частота : 48,0 КГц
Битовая глубина : 16 бит
Метод сжатия : С потерями
Размер потока : 209 Мбайт (8%)
Язык : Russian
Default : Да
Forced : Нет
Меню
00:00:00.000 : en:Глава 1
00:05:28.760 : en:Глава 2
00:10:43.560 : en:Глава 3
00:17:46.440 : en:Глава 4
00:23:05.240 : en:Глава 5
00:29:18.200 : en:Глава 6
00:35:00.120 : en:Глава 7
00:40:56.840 : en:Глава 8
00:48:50.040 : en:Глава 9
00:54:15.520 : en:Глава 10
00:59:42.800 : en:Глава 11
01:06:23.600 : en:Глава 12
Скриншоты:
Яндекс.Метрика
Рейтинг@Mail.ru