Superнянь 2 / Babysitting 2 (2015) BDRip 1080p | D

 

Создавать темы 09-Апр-2016 11:17

- Superнянь 2 / Babysitting 2 (2015) BDRip [H.264/1080p] - Производство: Франция, Axel Films, Cinfrance 1888, Good Lap Production
Жанр: Комедия
Режиссер: Николас Бенаму, Филипп Лашо
Продюсер: Кристоф Сервони, Марк Фисцман
Актеры: Филипп Лашо, Алис Давид, Венсан Дезанья, Тарек Будали, Жюльен Аррути, Грегуар Людиг, Давид Марсе, Жерар Жюньо, Клотильда Куро, Филипп Дюкен
Описание:
Влюбленная парочка Фрэнк и Соня приглашают своих друзей на отдых в Бразилию, в роскошный отель богатенького папы Сони. Планировалось, что это будет отдых мечты, а Фрэнк сделает Соне предложение посреди всей этой экзотики. Но его попытки получить одобрение отца оборачиваются полным провалом. Ведь с такими друзьями, как у него, и враги не нужны! Но настоящая катастрофа - впереди. Когда друзья - сексуально озабоченный Сэм, наивный чудак Эрнест и умственно отсталый Алекс - вместе с беднягой Фрэнком собрались на экскурсию, ушлый папаша пользуется возможностью и засылает в джунгли с этой бандой свою крикливую и надоедливую старушку. В общем, Амазонка и ее девственные леса еще никогда не были в такой опасности!-Возраст: 16+ (зрителям, достигшим 16 лет)
Дата мировой премьеры: 14 октября 2015
Дата премьеры в России: 3 декабря 2015, «Централ Партнершип»

Продолжительность: 01:32:54
Качество видео: BDRip-Перевод: Дублированный (iTunes)
Вид субтитров: Отсутствуют
Видео: AVC, 1920x1040 (16:9), 24.000 fps, 8 591 Kbps (0.179 bit/pixel)
Аудио: AC-3, 48.0 KHz, 6 ch, 384 Kbps, CBR (Russian)
Аудио: DTS, 48.0 KHz, 6 ch, 1 510 Kbps, CBR (French)

Mediainfo:

Общее
Уникальный идентификатор : 238642360037613453179611951776804063372 (0xB388D8C29D1544CAB37454D51D1F488C)
Полное имя : D:\[1]\Superнянь\Superнянь 2 - Babysitting 2 (2015)_BDRip.1080p.mkv
Формат : Matroska
Версия формата : Version 2
Размер файла : 6,80 Гбайт
Продолжительность : 1 ч. 32 м.
Общий поток : 10,5 Мбит/сек
Дата кодирования : UTC 2016-04-08 17:46:46
Программа кодирования : mkvmerge v7.8.0 ("River Man") 32bit built on Apr 3 2015 12:11:22
Библиотека кодирования : libebml v1.3.1 + libmatroska v1.4.2
Видео
Идентификатор : 1
Формат : AVC
Формат/Информация : Advanced Video Codec
Профиль формата : [url=mailto:[email protected]][email protected][/url]
Параметр CABAC формата : Да
Параметр ReFrames формата : 4 кадра
Идентификатор кодека : V_MPEG4/ISO/AVC
Продолжительность : 1 ч. 32 м.
Битрейт : 8591 Кбит/сек
Ширина : 1920 пикселей
Высота : 1040 пикселей
Соотношение сторон : 1,85:1
Режим частоты кадров : Постоянный
Частота кадров : 24,000 кадра/сек
Цветовое пространство : YUV
Субдискретизация насыщенности : 4:2:0
Битовая глубина : 8 бит
Тип развёртки : Прогрессивная
Бит/(Пиксели*Кадры) : 0.179
Размер потока : 5,44 Гбайт (80%)
Библиотека кодирования : x264 core 148 r2665 a01e339
Настройки программы : cabac=1 / ref=4 / deblock=1:0:0 / analyse=0x3:0x113 / me=umh / subme=8 / psy=1 / psy_rd=1.00:0.00 / mixed_ref=1 / me_range=16 / chroma_me=1 / trellis=1 / 8x8dct=1 / cqm=0 / deadzone=21,11 / fast_pskip=1 / chroma_qp_offset=-2 / threads=12 / lookahead_threads=2 / sliced_threads=0 / nr=0 / decimate=1 / interlaced=0 / bluray_compat=0 / constrained_intra=0 / bframes=3 / b_pyramid=2 / b_adapt=2 / b_bias=0 / direct=3 / weightb=1 / open_gop=0 / weightp=2 / keyint=250 / keyint_min=24 / scenecut=40 / intra_refresh=0 / rc_lookahead=50 / rc=2pass / mbtree=1 / bitrate=8591 / ratetol=1.0 / qcomp=0.60 / qpmin=0 / qpmax=69 / qpstep=4 / cplxblur=20.0 / qblur=0.5 / ip_ratio=1.40 / aq=1:1.00
Язык : English
Default : Да
Forced : Нет
Аудио #1
Идентификатор : 2
Формат : AC-3
Формат/Информация : Audio Coding 3
Расширение режима : CM (complete main)
Параметр Endianness формата : Big
Идентификатор кодека : A_AC3
Продолжительность : 1 ч. 32 м.
Вид битрейта : Постоянный
Битрейт : 384 Кбит/сек
Каналы : 6 каналов
Расположение каналов : Front: L C R, Side: L R, LFE
Частота : 48,0 КГц
Битовая глубина : 16 бит
Метод сжатия : С потерями
Размер потока : 255 Мбайт (4%)
Язык : Russian
Default : Да
Forced : Нет
Аудио #2
Идентификатор : 3
Формат : DTS
Формат/Информация : Digital Theater Systems
Режим : 16
Параметр Endianness формата : Big
Идентификатор кодека : A_DTS
Продолжительность : 1 ч. 32 м.
Вид битрейта : Постоянный
Битрейт : 1509 Кбит/сек
Каналы : 6 каналов
Расположение каналов : Front: L C R, Side: L R, LFE
Частота : 48,0 КГц
Битовая глубина : 24 бит
Метод сжатия : С потерями
Размер потока : 1003 Мбайт (14%)
Заголовок : French
Язык : French
Default : Нет
Forced : Нет
Меню
00:00:00.000 : en:00:00:00.000
00:05:41.667 : en:00:05:41.667
00:13:24.167 : en:00:13:24.167
00:20:10.417 : en:00:20:10.417
00:29:49.583 : en:00:29:49.583
00:38:52.292 : en:00:38:52.292
00:47:34.167 : en:00:47:34.167
00:59:02.708 : en:00:59:02.708
01:04:57.917 : en:01:04:57.917
01:14:32.917 : en:01:14:32.917
01:18:56.458 : en:01:18:56.458
01:26:27.500 : en:01:26:27.500
Скриншоты:
Яндекс.Метрика
Рейтинг@Mail.ru