[ Сегодня на трекере фрилич! Идет свободное скачивание без начисления Download ]

5-я волна / The 5th Wave (2016) BDRip 1080p | D

 

Создавать темы 09-Апр-2016 08:31

- 5-я волна / The 5th Wave (2016) BDRip [H.264/1080p] «We Fight Back»- Производство: США, Columbia Pictures, GK Films, Living Films, LStar Capital, Material Pictures
Жанр: Фантастика, Боевик, Триллер
Режиссер: Дж. Блэйксон
Продюсер: Тим Хэдингтон, Грэм Кинг, Тоби Магуайр
Актеры: Хлоя Грейс Морец, Ник Дж. Робинсон, Рон Ливингстон, Мэгги Сифф, Алекс Роу, Мария Белло, Майка Монро, Лив Шрайбер, Закари Артур, Тони Револори
Описание:
Первая волна оставила за собой мглу. От второй успели убежать только самые везучие. Но едва ли можно назвать везучими тех, кто уцелел после третьей. А четвертая волна стерла все человеческие законы, взамен же установила свой, один-единственный: хочешь жить — не верь никому. И вот уже накатывает пятая волна…
Возраст: 16+ (зрителям, достигшим 16 лет)
Рейтинг MPAA: PG-13 (детям до 13 лет просмотр нежелателен)
Дата мировой премьеры: 14 января 2016
Дата премьеры в России: 21 января 2016, «WDSSPR»

Продолжительность: 01:52:22
Качество видео: BDRip
Перевод: Дублированный (iTunes)
Вид субтитров: Английские (вшитые, отключаемые)
Видео: AVC, 1920x808 (2.35:1), 23.976 fps, 8 611 Kbps (0.232 bit/pixel)
Аудио1: DTS, 48.0 KHz, 6 ch, 1 510 Kbps, CBR (English)
Аудио2: AC-3, 48.0 KHz, 6 ch, 384 Kbps, CBR (Russian)

Mediainfo:

Формат : Matroska
Версия формата : Version 4 / Version 2
Размер файла : 8,26 Гбайт
Продолжительность : 1 ч. 52 м.
Общий поток : 10,5 Мбит/сек
Дата кодирования : UTC 2016-04-08 15:24:28
Программа кодирования : mkvmerge v8.3.0 ("Over the Horizon") 64bit
Библиотека кодирования : libebml v1.3.1 + libmatroska v1.4.2
DURATION : 01:52:22.720000000
NUMBER_OF_FRAMES : 210710
NUMBER_OF_BYTES : 323650560
_STATISTICS_WRITING_APP : mkvmerge v8.3.0 ("Over the Horizon") 64bit
_STATISTICS_WRITING_DATE_UTC : 2016-04-08 15:24:28
_STATISTICS_TAGS : BPS DURATION NUMBER_OF_FRAMES NUMBER_OF_BYTES
Видео
Идентификатор : 1
Формат : AVC
Формат/Информация : Advanced Video Codec
Профиль формата : [url=mailto:[email protected]][email protected][/url]
Параметр CABAC формата : Да
Параметр ReFrames формата : 5 кадров
Идентификатор кодека : V_MPEG4/ISO/AVC
Продолжительность : 1 ч. 52 м.
Битрейт : 8611 Кбит/сек
Ширина : 1920 пикселей
Высота : 808 пикселей
Соотношение сторон : 2,40:1
Режим частоты кадров : Постоянный
Частота кадров : 23,976 кадра/сек
Цветовое пространство : YUV
Субдискретизация насыщенности : 4:2:0
Битовая глубина : 8 бит
Тип развёртки : Прогрессивная
Бит/(Пиксели*Кадры) : 0.232
Размер потока : 6,61 Гбайт (80%)
Библиотека кодирования : x264 core 148 r2665 a01e339
Настройки программы : cabac=1 / ref=5 / deblock=1:0:0 / analyse=0x3:0x133 / me=umh / subme=7 / psy=1 / psy_rd=1.00:0.00 / mixed_ref=1 / me_range=16 / chroma_me=1 / trellis=1 / 8x8dct=1 / cqm=0 / deadzone=21,11 / fast_pskip=0 / chroma_qp_offset=-2 / threads=18 / lookahead_threads=3 / sliced_threads=0 / nr=0 / decimate=1 / interlaced=0 / bluray_compat=0 / constrained_intra=0 / bframes=3 / b_pyramid=2 / b_adapt=1 / b_bias=0 / direct=1 / weightb=1 / open_gop=0 / weightp=2 / keyint=250 / keyint_min=23 / scenecut=40 / intra_refresh=0 / rc_lookahead=40 / rc=2pass / mbtree=1 / bitrate=8611 / ratetol=1.0 / qcomp=0.60 / qpmin=0 / qpmax=69 / qpstep=4 / cplxblur=20.0 / qblur=0.5 / ip_ratio=1.40 / aq=1:1.00
Язык : English
Default : Да
Forced : Нет
DURATION : 01:52:22.664000000
NUMBER_OF_FRAMES : 161662
NUMBER_OF_BYTES : 7256776645
_STATISTICS_WRITING_APP : mkvmerge v8.3.0 ("Over the Horizon") 64bit
_STATISTICS_WRITING_DATE_UTC : 2016-04-08 15:24:28
_STATISTICS_TAGS : BPS DURATION NUMBER_OF_FRAMES NUMBER_OF_BYTES
Аудио #1
Идентификатор : 2
Формат : DTS
Формат/Информация : Digital Theater Systems
Режим : 16
Параметр Endianness формата : Big
Идентификатор кодека : A_DTS
Продолжительность : 1 ч. 52 м.
Вид битрейта : Постоянный
Битрейт : 1509 Кбит/сек
Каналы : 6 каналов
Расположение каналов : Front: L C R, Side: L R, LFE
Частота : 48,0 КГц
Битовая глубина : 24 бит
Метод сжатия : С потерями
Размер потока : 1,18 Гбайт (14%)
Язык : English
Default : Нет
Forced : Нет
Аудио #2
Идентификатор : 6
Формат : AC-3
Формат/Информация : Audio Coding 3
Расширение режима : CM (complete main)
Параметр Endianness формата : Big
Идентификатор кодека : A_AC3
Продолжительность : 1 ч. 52 м.
Вид битрейта : Постоянный
Битрейт : 384 Кбит/сек
Каналы : 6 каналов
Расположение каналов : Front: L C R, Side: L R, LFE
Частота : 48,0 КГц
Битовая глубина : 16 бит
Метод сжатия : С потерями
Размер потока : 309 Мбайт (4%)
Язык : Russian
Default : Да
Forced : Нет
Текст #1
Идентификатор : 3
Формат : VobSub
Режим смешивания : zlib
Идентификатор кодека : S_VOBSUB
Идентификатор кодека/Информация : Picture based subtitle format used on DVDs
Язык : English
Default : Нет
Forced : Нет
Текст #2
Идентификатор : 4
Формат : VobSub
Режим смешивания : zlib
Идентификатор кодека : S_VOBSUB
Идентификатор кодека/Информация : Picture based subtitle format used on DVDs
Язык : English
Default : Нет
Forced : Нет
Текст #3
Идентификатор : 5
Формат : VobSub
Режим смешивания : zlib
Идентификатор кодека : S_VOBSUB
Идентификатор кодека/Информация : Picture based subtitle format used on DVDs
Язык : English
Default : Нет
Forced : Нет
Меню
00:00:00.000 : en:00:00:00.000
00:03:48.562 : en:00:03:48.562
00:09:05.837 : en:00:09:05.837
00:16:01.335 : en:00:16:01.335
00:20:46.036 : en:00:20:46.036
00:28:43.430 : en:00:28:43.430
00:37:41.968 : en:00:37:41.968
00:45:50.957 : en:00:45:50.957
00:54:19.715 : en:00:54:19.715
00:59:47.709 : en:00:59:47.709
01:06:01.749 : en:01:06:01.749
01:13:06.132 : en:01:13:06.132
01:18:13.230 : en:01:18:13.230
01:25:02.264 : en:01:25:02.264
01:32:21.161 : en:01:32:21.161
01:43:07.431 : en:01:43:07.431
Скриншоты:
Яндекс.Метрика
Рейтинг@Mail.ru