Здравствуй, папа, Новый год / Daddy's Home (Шон Андерс) [2015, комедия, BDRip 1080p] [Чистый звук] [HEVC]

 

Создавать темы 28-Мар-2016 22:18

Здравствуй, папа, Новый год / Daddy's Home-Год выпуска: 2015
Страна: США
Жанр: Комедия
Продолжительность: 01:36:01
Перевод: Дублированный [Чистый звук]
Субтитры: Нет-В ролях: Уилл Феррелл, Марк Уолберг, Линда Карделлини, Томас Хейден Чёрч, Скарлет Эстевез, Оуэн Ваккаро, Бобби Каннавале, Хэннибал Бёресс, Билл Бёрр, Джейми Денбо
Режиссёр: Шон Андерс-Описание: Отец двоих детей возвращается к своей бывшей жене, которая успела выйти замуж, и теперь его ждет соперничество с отчимом за внимание своих отпрысков.-Качество: BDRip 1080p
Формат: MKV
Видео кодек: H.265 HEVC 10bit
Аудио кодек: MP3
Видео:
• HEVC, 1800 Kbps, 10bit, 1920x1080, 23.976 fps
Аудио:
• MP3 2.0, 320 Kbps, 16bit, 48.0 KHz [RUS]-

MediaInfo

General
Unique ID : 188034605801616810032988645425608481840 (0x8D7625D587547BFEA67A8E58ACF55C30)
Complete name : C:\Раздача\Daddys.Home.2015.1080p.HEVC.mkv
Format : Matroska
Format version : Version 4 / Version 2
File size : 1.42 GiB
Duration : 1h 36mn
Overall bit rate : 2 122 Kbps
Encoded date : UTC 2016-03-27 02:09:55
Writing application : mkvmerge v8.9.0 ('Father Daughter') 64bit
Writing library : libebml v1.3.3 + libmatroska v1.4.4
Video
ID : 1
Format : HEVC
Format/Info : High Efficiency Video Coding
Format profile : Main [email protected]@Main
Codec ID : V_MPEGH/ISO/HEVC
Duration : 1h 36mn
Bit rate : 1 800 Kbps
Width : 1 920 pixels
Height : 1 080 pixels
Display aspect ratio : 16:9
Frame rate mode : Constant
Frame rate : 23.976 (24000/1001) fps
Color space : YUV
Chroma subsampling : 4:2:0
Bit depth : 10 bits
Bits/(Pixel*Frame) : 0.036
Stream size : 1.21 GiB (85%)
Title : HEVC
Writing library : x265 1.9+54-291beccb6760:[Windows][GCC 5.3.0][64 bit] 10bit
Encoding settings : wpp / ctu=64 / min-cu-size=8 / max-tu-size=32 / tu-intra-depth=1 / tu-inter-depth=1 / me=1 / subme=2 / merange=57 / no-rect / no-amp / max-merge=2 / temporal-mvp / no-early-skip / rdpenalty=0 / no-tskip / no-tskip-fast / strong-intra-smoothing / no-lossless / no-cu-lossless / no-constrained-intra / no-fast-intra / open-gop / no-temporal-layers / interlace=0 / keyint=250 / min-keyint=23 / scenecut=40 / rc-lookahead=20 / lookahead-slices=6 / bframes=4 / bframe-bias=0 / b-adapt=2 / ref=3 / limit-refs=3 / no-limit-modes / weightp / no-weightb / aq-mode=1 / qg-size=32 / aq-strength=1.00 / cbqpoffs=0 / crqpoffs=0 / rd=3 / psy-rd=2.00 / rdoq-level=0 / psy-rdoq=0.00 / no-rd-refine / signhide / deblock / sao / no-sao-non-deblock / b-pyramid / cutree / no-intra-refresh / rc=2 / pass / bitrate=1799 / qcomp=0.60 / qpmin=0 / qpmax=51 / qpstep=4 / cplxblur=20.0 / qblur=0.5 / ipratio=1.40 / pbratio=1.30
Language : English
Default : Yes
Forced : No
Audio
ID : 2
Format : MPEG Audio
Format version : Version 1
Format profile : Layer 3
Mode : Joint stereo
Codec ID : A_MPEG/L3
Codec ID/Hint : MP3
Duration : 1h 36mn
Bit rate mode : Constant
Bit rate : 320 Kbps
Channel(s) : 2 channels
Sampling rate : 48.0 KHz
Frame rate : 41.667 fps (1152 spf)
Compression mode : Lossy
Stream size : 220 MiB (15%)
Title : RUS
Language : Russian
Default : Yes
Forced : No
Menu
00:00:00.000 : en:Chapter 01
00:09:23.729 : en:Chapter 02
00:19:57.070 : en:Chapter 03
00:28:45.014 : en:Chapter 04
00:35:35.049 : en:Chapter 05
00:44:05.768 : en:Chapter 06
00:55:54.726 : en:Chapter 07
01:03:21.047 : en:Chapter 08
01:12:08.198 : en:Chapter 09
01:21:58.204 : en:Chapter 10
01:31:15.261 : en:Chapter 11

Скриншоты:

Яндекс.Метрика
Рейтинг@Mail.ru