[ Сегодня на трекере фрилич! Идет свободное скачивание без начисления Download ]

Дэдпул / Deadpool (2016) WEBRip [H.264/1080p-LQ] [Line]

 

Создавать темы 26-Мар-2016 21:33

-Дэдпул / Deadpool (2016) WEBRip [H.264/1080p-LQ] - Производство: США, Канада 20th Century Fox Film Corporation
Жанр: Фантастика, Боевик, Комедия, Приключения
Режиссер: Тим Миллер
Продюсер: Саймон Кинберг, Райан Рейнольдс, Лорен Шулер Доннер
Актеры: Райан Рейнольдс, Морена Баккарин, Джина Карано, ТиДжей Миллер, Эд Скрейн, Рэйчел Шин, Брианна Хилдебранд, Андре Трикоте, Тэйлор Хиксон, Джед Риис
Описание:
Уэйд Уилсон — наемник. Будучи побочным продуктом программы вооруженных сил под названием «Оружие Х», Уилсон приобрел невероятную силу, проворство и исцеляющий фактор. Но страшной ценой: его клеточная структура постоянно меняется, а его здравомыслие сомнительно. Все чего Уилсон хочет — это держаться на плаву в социальной выгребной яме. Но течение в ней слишком быстрое.

Возраст: 18 + (зрителям, достигшим 18 лет. запрещено для детей )
Рейтинг MPAA: R ( лицам до 17 лет обязательно присутствие взрослого)
Дата мировой премьеры: 21 января 2016
Дата премьеры в России: 11 февраля 2016, «Двадцатый Век Фокс СНГ»
-Продолжительность: 01:47:48
Качество видео: WEBRip
Перевод: Дублированный (Чистый звук)
Вид субтитров: Корейский (вшитые, неотлючаемые) Английский (вшитые, отлючаемые)-Видео: AVC/H.264, 1920x1080 (2.40:1), 5810 kb/s, 29.970 fps
Аудио »1: 48 kHz, AC3 Dolby Digital, 2/0 (L,R) ch, ~192 kbps (Русский)
Аудио »2: 48 kHz, AC3 Dolby Digital, 2/0 (L,R) ch, ~384 kbps (Английский)

MI:

Общее
Уникальный идентификатор : 171493873154098479460039811449695833838 (0x810484C0425A6891B1E85DBB3C2D0EEE)
Полное имя : D:\Релизы\Дэдпул.2016.WEBRip.[1080p].nnm-club.mkv
Формат : Matroska
Версия формата : Version 2
Размер файла : 4,91 Гбайт
Продолжительность : 1 ч. 47 м.
Общий поток : 6516 Кбит/сек
Название фильма : Дэдпул.2016.WEBRip.[1080p].nnm-club
Дата кодирования : UTC 2016-03-26 13:08:03
Программа кодирования : mkvmerge v8.3.0 ("Over the Horizon") 64bit
Библиотека кодирования : libebml v1.3.1 + libmatroska v1.4.2
Видео
Идентификатор : 1
Формат : AVC
Формат/Информация : Advanced Video Codec
Профиль формата : [url=mailto:[email protected]][email protected][/url]
Параметр CABAC формата : Да
Параметр ReFrames формата : 2 кадра
Идентификатор кодека : V_MPEG4/ISO/AVC
Продолжительность : 1 ч. 47 м.
Битрейт : 5810 Кбит/сек
Ширина : 1920 пикселей
Высота : 1080 пикселей
Соотношение сторон : 16:9
Режим частоты кадров : Постоянный
Частота кадров : 29,970 кадров/сек
Цветовое пространство : YUV
Субдискретизация насыщенности : 4:2:0
Битовая глубина : 8 бит
Тип развёртки : Прогрессивная
Бит/(Пиксели*Кадры) : 0.093
Размер потока : 4,38 Гбайт (89%)
Заголовок : Дэдпул.2016.WEBRip.[1080p].nnm-club
Язык : English
Default : Да
Forced : Нет
Аудио #1
Идентификатор : 2
Формат : AC-3
Формат/Информация : Audio Coding 3
Расширение режима : CM (complete main)
Параметр Endianness формата : Big
Идентификатор кодека : A_AC3
Продолжительность : 1 ч. 47 м.
Вид битрейта : Постоянный
Битрейт : 192 Кбит/сек
Каналы : 2 канала
Расположение каналов : Front: L R
Частота : 48,0 КГц
Метод сжатия : С потерями
Размер потока : 148 Мбайт (3%)
Заголовок : Line
Язык : Russian
Default : Да
Forced : Да
Аудио #2
Идентификатор : 3
Формат : AC-3
Формат/Информация : Audio Coding 3
Расширение режима : CM (complete main)
Параметр Endianness формата : Big
Идентификатор кодека : A_AC3
Продолжительность : 1 ч. 47 м.
Вид битрейта : Постоянный
Битрейт : 384 Кбит/сек
Каналы : 2 канала
Расположение каналов : Front: L R
Частота : 48,0 КГц
Метод сжатия : С потерями
Размер потока : 296 Мбайт (6%)
Заголовок : Original
Язык : English
Default : Нет
Forced : Нет
Текст
Идентификатор : 4
Формат : UTF-8
Идентификатор кодека : S_TEXT/UTF8
Идентификатор кодека/Информация : UTF-8 Plain Text
Заголовок : Full
Язык : English
Default : Нет
Forced : Нет
Скриншоты:Время раздачи: 24/7 (до появления первых 3-5 скачавших)
Яндекс.Метрика
Рейтинг@Mail.ru