Родственнички (2016) WEB-DLRip (сезон 1, серии 1-8 из 8)

 

Создавать темы 25-Мар-2016 23:37

-Родственнички (2016) WEB-DLRip (сезон 1, серии 1-8 из 8)- Производство: Украина / "Студия Квартал 95"
Жанр: комедия
Режиссер: Андрей Яковлев
Актеры: Александр Феклистов, Дмитрий Суржиков, Джемал Тетруашвили, Вера Кобзарь, Екатерина Кистень, Олеся Жураковская и др.
Описание:
Глава семейства - Михаил Иванович, заслуженный пенсионер, живет один в загородном доме. Своих уже взрослых детей он видит крайне редко. И вот, в один из таких редких случаев на его 67-летие в гости приезжают сыновья Игорь и Сергей со своими женами. На дне рождения Михаил Иванович случайно узнает, что братья друг с другом в ссоре и уже несколько лет просто разыгрывают перед ним хорошие отношения. Главный герой, пытаясь разобраться в причинах разногласий и примирить своих детей, хитростями удерживает сыновей в родительском доме.....
Продолжительность: ~00:52:00 серия
Качество видео: WEB-DLRip
Видео: XVID, 720x400 (16:9), ~1800 Kbps
Аудио: AC3, 2 ch, 192 Kbps, CBR

MediaInfo:

Общее
Полное имя                               : F:\DOWNLOADS\Родственнички (2016) WEB-DLRip\Родственнички - 01 серия.avi
Формат                                   : AVI
Формат/Информация                        : Audio Video Interleave
Размер файла                             : 740 Мбайт
Продолжительность                        : 51 м.
Общий поток                              : 2004 Кбит/сек
Программа кодирования                    : VirtualDubMod 1.5.10.3 | [url=http://www.virtualdub-fr.org]www.virtualdub-fr.org[/url] || (build 2550/release)
Библиотека кодирования                   : VirtualDubMod build 2550/release
Видео
Идентификатор                            : 0
Формат                                   : MPEG-4 Visual
Профиль формата                          : Advanced [email protected]
Параметр BVOP формата                    : 1
Параметр QPel формата                    : Нет
Параметр GMC формата                     : Без точки перехода
Параметр матрицы формата                 : Default (MPEG)
Идентификатор кодека                     : XVID
Идентификатор кодека/Подсказка           : XviD
Продолжительность                        : 51 м.
Битрейт                                  : 1802 Кбит/сек
Ширина                                   : 720 пикселей
Высота                                   : 400 пикселей
Соотношение сторон                       : 16:9
Частота кадров                           : 25,000 кадров/сек
Цветовое пространство                    : YUV
Субдискретизация насыщенности            : 4:2:0
Битовая глубина                          : 8 бит
Тип развёртки                            : Прогрессивная
Метод сжатия                             : С потерями
Бит/(Пиксели*Кадры)                      : 0.250
Размер потока                            : 666 Мбайт (90%)
Библиотека кодирования                   : XviD 73
Аудио
Идентификатор                            : 1
Формат                                   : AC-3
Формат/Информация                        : Audio Coding 3
Расширение режима                        : CM (complete main)
Параметр Endianness формата              : Big
Идентификатор кодека                     : 2000
Продолжительность                        : 51 м.
Вид битрейта                             : Постоянный
Битрейт                                  : 192 Кбит/сек
Каналы                                   : 2 канала
Расположение каналов                     : Front: L R
Частота                                  : 44,1 КГц
Метод сжатия                             : С потерями
Размер потока                            : 70,9 Мбайт (10%)
Выравнивание                             : Разделение по промежуткам
Продолжительность промежутка             : 40  мс. (1,00 видеокадр)
Время предзагрузки промежутка            : 500  мс.
Скриншоты:
Яндекс.Метрика
Рейтинг@Mail.ru