Расследования авиакатастроф / Mayday / Air Crash Investigation (сезон 14) (11 серий из 11) [2015, документальный, DVB]

 

Создавать темы 07-Мар-2016 01:56

Air Crash Investigation / Mayday / Расследования авиакатастроф / сезон 14 (11 серий из 11)
Год выпуска: 2015
Страна: Канада
Жанр: документальный
Продолжительность: ~ 00:47:00
Перевод: Профессиональный (двухголосый закадровый)
Русские субтитры: нет
Описание: Сериал о наиболее громких и загадочных катастрофах в истории гражданской авиации.
Наиболее полную информацию о сериале можно получить здесь List of Mayday episodes, для фанатов рекомендую именно этот сайт.
Есть русская, более лаконичная версия Список эпизодов телесериала «Расследования авиакатастроф»
Снимался канадской студией Cineflix в партнерстве с Discovery Channel (Canada), Canal D (Canada), and National Geographic Channel (US & International).
Доп. информация: Видеоматериал записал Prof1
Сэмпл: https://www.sendspace.com/file/ga37n8
Качество: DVB
формат: MPG
Видео: [email protected] (1,78:1), 25 fps, mpeg2 ~3200 kbps avg, 0.309 bit/pixel
Аудио 1: Russian (48 KHz, MP2, 2 ch, ~192 Kbps) (двухголосый)
Аудио 2: English (48 KHz, MP2, 2 ch, ~192 Kbps) (оригинал) не везде

Список выпусков/серий

14-01. Полный отказ двигателей (M1 Plane Crash)
14-02. Ники Лауда. Трагедия в воздухе (Niki Lauda. Tragedy in the Air)
14-03. Сбившийся с курса (Vanishing Act)
14-04. Пропавший над джунглями (Sideswiped)
14-05. Смерть в Нарите (Death At Narita)
14-06. Смерть Джона Кеннеди-младшего (The Death of JFK Jnr)
14-07. Конкорд - в огне (Concorde - Up In Flames)
14-08. Трагедия в центре города (Inner City Carnage)
14-09. Бог троицу не любит (3rd Time Unlucky)
14-10. Смерть в Арктике (Death In The Arctic)
14-11. Что случилось с Malaysia 370? (Malaysia 370. What Happened?)

MediaInfo

Общее
Полное имя : D:\КИНО\Air Crash Investigation season 14\14-06. Смерть Джона Кеннеди-младшего (The Death of JFK Jnr).mpg
Формат : MPEG-PS
Размер файла : 1,05 Гбайт
Продолжительность : 43 м.
Общий поток : 3432 Кбит/сек
Видео
Идентификатор : 224 (0xE0)
Формат : MPEG Video
Версия формата : Version 2
Профиль формата : [email protected]
Параметр BVOP формата : Да
Параметр матрицы формата : Выборочная
Параметр GOP формата : Variable
Продолжительность : 43 м.
Битрейт : 3200 Кбит/сек
Ширина : 720 пикселей
Высота : 576 пикселей
Соотношение сторон : 16:9
Частота кадров : 25,000 кадров/сек
Стандарт вещания : PAL
Цветовое пространство : YUV
Субдискретизация насыщенности : 4:2:0
Битовая глубина : 8 бит
Тип развёртки : Чересстрочная
Порядок развёртки : Верхнее поле первое
Метод сжатия : С потерями
Бит/(Пиксели*Кадры) : 0.309
Размер потока : 997 Мбайт (92%)
Аудио
Идентификатор : 192 (0xC0)
Формат : MPEG Audio
Версия формата : Version 1
Профиль формата : Layer 2
Режим : Joint stereo
Расширение режима : Intensity Stereo + MS Stereo
Продолжительность : 43 м.
Вид битрейта : Постоянный
Битрейт : 192 Кбит/сек
Каналы : 2 канала
Частота : 48,0 КГц
Метод сжатия : С потерями
Задержка видео : 5 мс.
Размер потока : 60,4 Мбайт (6%)
Меню
Общее
Полное имя : D:\КИНО\Air Crash Investigation season 14\14-07. Конкорд - в огне (Concorde - Up In Flames).mpg
Формат : MPEG-PS
Размер файла : 1,05 Гбайт
Продолжительность : 43 м.
Общий поток : 3431 Кбит/сек
Видео
Идентификатор : 224 (0xE0)
Формат : MPEG Video
Версия формата : Version 2
Профиль формата : [email protected]
Параметр BVOP формата : Да
Параметр матрицы формата : Выборочная
Параметр GOP формата : Variable
Продолжительность : 43 м.
Битрейт : 3200 Кбит/сек
Ширина : 720 пикселей
Высота : 576 пикселей
Соотношение сторон : 16:9
Частота кадров : 25,000 кадров/сек
Стандарт вещания : PAL
Цветовое пространство : YUV
Субдискретизация насыщенности : 4:2:0
Битовая глубина : 8 бит
Тип развёртки : Чересстрочная
Порядок развёртки : Верхнее поле первое
Метод сжатия : С потерями
Бит/(Пиксели*Кадры) : 0.309
Размер потока : 996 Мбайт (92%)
Аудио
Идентификатор : 192 (0xC0)
Формат : MPEG Audio
Версия формата : Version 1
Профиль формата : Layer 2
Режим : Joint stereo
Расширение режима : Intensity Stereo + MS Stereo
Продолжительность : 43 м.
Вид битрейта : Постоянный
Битрейт : 192 Кбит/сек
Каналы : 2 канала
Частота : 48,0 КГц
Метод сжатия : С потерями
Задержка видео : 5 мс.
Размер потока : 60,3 Мбайт (6%)

Скриншоты

Яндекс.Метрика
Рейтинг@Mail.ru