Игра на понижение / The Big Short (2015) BDRip [H.264/1080p] [Line]

 

Создавать темы 06-Мар-2016 21:19

- Игра на понижение / The Big Short (2015) BDRip [H.264/1080p]- Производство: США (Plan B Entertainment, Regency Enterprises)
Жанр: драма, комедия, биография
Режиссер: Адам МакКей
Актеры: Брэд Питт, Кристиан Бэйл, Стив Карелл, Райан Гослинг, Мелисса Лео, Хамиш Линклэйтер, Джон Магаро, Рейф Сполл, Джереми Стронг, Мариса Томей
Описание:
Когда речь идет о деньгах, совесть молчит. А уж если речь об огромных деньгах!.. Это основанная на реальных событиях история нескольких провидцев, которые независимо друг от друга предсказали мировой экономический кризис 2008 года задолго до того, как о нем зашептались в кулуарах на Уолл-стрит. И предсказав, стали на нем зарабатывать. Сами того не желая.- -Дата мировой премьеры: 12 ноября 2015
Дата премьеры в России: 21 января 2016

Релиз от: NNM-CLUB
Продолжительность: 02:10:15
Качество видео: BDRip (SbR)
Перевод: Дублированный (чистый звук)
Язык субтитров: английский
Вид субтитров: вшитые
Видео: AVC/H.264, 1920x800, ~16900 Kbps
Аудио 1: AC3, 2 ch, 192 Kbps, CBR | Русский
Аудио 2: AC3, 6 ch, 1 509 Kbps, CBR | Английский

h.264 log:

x264 [info]: frame I:1090 Avg QP:17.95 size:212760
x264 [info]: frame P:40715 Avg QP:20.07 size: 95633
x264 [info]: frame B:145588 Avg QP:20.79 size: 84992
x264 [info]: consecutive B-frames: 2.0% 2.8% 14.5% 8.3% 13.8% 49.5% 3.5% 0.9% 0.8% 1.0% 0.7% 2.3%
x264 [info]: kb/s:16888.23

Mediainfo:

Общее
Полное имя : \Игра на понижение_The Big Short.2015.BDRip.1080p.NNM-CLUB.mkv
Формат : Matroska
Версия формата : Version 2
Размер файла : 16,9 Гбайт
Продолжительность : 2 ч. 10 м.
Общий поток : 18,6 Мбит/сек
Название фильма : Игра на понижение_The Big Short.2015.BDRip.1080p.NNM-CLUB
Дата кодирования : UTC 2016-03-06 05:12:59
Программа кодирования : mkvmerge v7.7.0 ('Six Voices') 64bit built on Feb 28 2015 23:39:33
Библиотека кодирования : libebml v1.3.1 + libmatroska v1.4.2
Обложка : Yes
Attachments : cover.jpg / xlog.txt
Видео
Идентификатор : 1
Формат : AVC
Формат/Информация : Advanced Video Codec
Профиль формата : [url=mailto:[email protected]][email protected][/url]
Параметр CABAC формата : Да
Параметр ReFrames формата : 5 кадров
Идентификатор кодека : V_MPEG4/ISO/AVC
Продолжительность : 2 ч. 10 м.
Битрейт : 16,9 Мбит/сек
Ширина : 1920 пикселей
Высота : 800 пикселей
Соотношение сторон : 2,40:1
Режим частоты кадров : Постоянный
Частота кадров : 23,976 (24000/1001) кадра/сек
Цветовое пространство : YUV
Субдискретизация насыщенности : 4:2:0
Битовая глубина : 8 бит
Тип развёртки : Прогрессивная
Бит/(Пиксели*Кадры) : 0.459
Размер потока : 15,0 Гбайт (89%)
Заголовок : Игра на понижение_The Big Short.2015.BDRip.1080p.NNM-CLUB
Библиотека кодирования : x264 core 148 r2665kMod a01e339
Настройки программы : cabac=1 / ref=5 / deblock=1:-2:-2 / analyse=0x3:0x133 / me=umh / subme=11 / psy=1 / fade_compensate=0.00 / psy_rd=1.00:0.00 / mixed_ref=1 / me_range=32 / chroma_me=1 / trellis=2 / 8x8dct=1 / cqm=0 / deadzone=21,11 / fast_pskip=0 / chroma_qp_offset=-2 / threads=12 / lookahead_threads=3 / sliced_threads=0 / nr=0 / decimate=1 / interlaced=0 / bluray_compat=0 / constrained_intra=0 / fgo=0 / bframes=11 / b_pyramid=2 / b_adapt=2 / b_bias=0 / direct=3 / weightb=1 / open_gop=0 / weightp=2 / keyint=250 / keyint_min=23 / scenecut=40 / intra_refresh=0 / rc_lookahead=120 / rc=2pass / mbtree=1 / bitrate=16900 / ratetol=1.0 / qcomp=0.80 / qpmin=0 / qpmax=69 / qpstep=4 / cplxblur=20.0 / qblur=0.5 / vbv_maxrate=62500 / vbv_bufsize=78125 / nal_hrd=none / filler=0 / ip_ratio=1.30 / aq=1:0.70
Язык : English
Default : Да
Forced : Нет
Цветовой диапазон : Limited
Основные цвета : BT.709
Характеристики трансфера : BT.709
Коэффициенты матрицы : BT.709
Statistics Tags Issue : mkvmerge v8.2.0 ('World of Adventure') 64bit 2016-03-04 06:22:51 / mkvmerge v7.7.0 ('Six Voices') 64bit built on Feb 28 2015 23:39:33 2016-03-06 05:12:59
FromStats_BitRate : 16888227
FromStats_Duration : 02:10:15.850000000
FromStats_FrameCount : 187393
FromStats_StreamSize : 16499481323
Аудио #1
Идентификатор : 2
Формат : AC-3
Формат/Информация : Audio Coding 3
Расширение режима : CM (complete main)
Параметр Endianness формата : Big
Идентификатор кодека : A_AC3
Продолжительность : 2 ч. 10 м.
Вид битрейта : Постоянный
Битрейт : 192 Кбит/сек
Каналы : 2 канала
Расположение каналов : Front: L R
Частота : 48,0 КГц
Частота кадров : 31,250 кадров/сек (1536 spf)
Метод сжатия : С потерями
Размер потока : 179 Мбайт (1%)
Заголовок : Дубляж (Чистый звук)
Язык : Russian
Default : Да
Forced : Нет
Аудио #2
Идентификатор : 3
Формат : DTS
Формат/Информация : Digital Theater Systems
Режим : 16
Параметр Endianness формата : Big
Идентификатор кодека : A_DTS
Продолжительность : 2 ч. 10 м.
Вид битрейта : Постоянный
Битрейт : 1509 Кбит/сек
Каналы : 6 каналов
Расположение каналов : Front: L C R, Side: L R, LFE
Частота : 48,0 КГц
Частота кадров : 93,750 кадра/сек (512 spf)
Битовая глубина : 24 бит
Метод сжатия : С потерями
Размер потока : 1,37 Гбайт (8%)
Язык : English
Default : Нет
Forced : Нет
Statistics Tags Issue : mkvmerge v8.2.0 ('World of Adventure') 64bit 2016-03-04 06:22:51 / mkvmerge v7.7.0 ('Six Voices') 64bit built on Feb 28 2015 23:39:33 2016-03-06 05:12:59
FromStats_BitRate : 1508999
FromStats_Duration : 02:10:15.851000000
FromStats_FrameCount : 732736
FromStats_StreamSize : 1474264832
Текст #1
Идентификатор : 4
Формат : UTF-8
Идентификатор кодека : S_TEXT/UTF8
Идентификатор кодека/Информация : UTF-8 Plain Text
Язык : English
Default : Нет
Forced : Нет
Statistics Tags Issue : mkvmerge v8.2.0 ('World of Adventure') 64bit 2016-03-04 06:22:51 / mkvmerge v7.7.0 ('Six Voices') 64bit built on Feb 28 2015 23:39:33 2016-03-06 05:12:59
FromStats_BitRate : 95
FromStats_Duration : 02:00:25.885000000
FromStats_FrameCount : 2307
FromStats_StreamSize : 86295
Текст #2
Идентификатор : 5
Формат : UTF-8
Идентификатор кодека : S_TEXT/UTF8
Идентификатор кодека/Информация : UTF-8 Plain Text
Заголовок : SDH
Язык : English
Default : Нет
Forced : Нет
Statistics Tags Issue : mkvmerge v8.2.0 ('World of Adventure') 64bit 2016-03-04 06:22:51 / mkvmerge v7.7.0 ('Six Voices') 64bit built on Feb 28 2015 23:39:33 2016-03-06 05:12:59
FromStats_BitRate : 99
FromStats_Duration : 02:03:09.674000000
FromStats_FrameCount : 2546
FromStats_StreamSize : 91806
Меню
00:00:00.000 : en:Chapter 1
00:09:24.564 : en:Chapter 2
00:15:47.571 : en:Chapter 3
00:19:03.058 : en:Chapter 4
00:25:59.516 : en:Chapter 5
00:28:49.978 : en:Chapter 6
00:37:24.242 : en:Chapter 7
00:42:54.488 : en:Chapter 8
00:49:36.682 : en:Chapter 9
00:57:01.835 : en:Chapter 10
01:02:09.892 : en:Chapter 11
01:10:52.957 : en:Chapter 12
01:17:03.243 : en:Chapter 13
01:20:57.102 : en:Chapter 14
01:29:53.221 : en:Chapter 15
01:34:37.046 : en:Chapter 16
01:41:15.903 : en:Chapter 17
01:45:30.490 : en:Chapter 18
01:49:34.651 : en:Chapter 19
01:55:16.075 : en:Chapter 20
02:03:44.500 : en:Chapter 21
Скриншоты:
Время раздачи: 24/7
Яндекс.Метрика
Рейтинг@Mail.ru