Теория Лжи / Обмани Меня / Lie To Me / Сезон 1 / Серии 01-13 (13) (Самуэль Баум) [2009, Детектив, драма, BDRip 400p] (Дубляж ТВ3 | Original)

 

Создавать темы 27-Дек-2013 23:54

--Теория Лжи / Обмани Меня / Lie To Me-- Год выпуска: 2009
Страна: USA | Fox
Жанр: комедия, драма
Сезон/Серия: Сезон:1 /Серия 1-13 из 13
Продолжительность: 13 x~ 00:45:00
Перевод: Полное дублирование ТВ3
Субтитры: отсутствуют--Режиссёр: Самуэль Баум--В ролях: Тим Рот, Келли Уильямс, Брендан П. Хайнс, Моника Рэймунд и другие--Описание: Доктор Лайтман считает, что все врут. И чтобы доказать это, ему достаточно всего лишь пару минут пообщаться с человеком. Любое движение, жест, любое неосторожное слово могут выдать в вас лжеца. Надо лишь уметь это увидеть. Среднестатистический человек врет три раза за десять минут разговора. Задача доктора Лайтмана и его коллег — распознать эту ложь, и, используя свои таланты, они спасают от тюрьмы невиновных и сажают за решетку преступников. К Агентству Лайтмана обращаются за помощью федералы, правительство, Конгресс и даже премьер-министр Узбекистана. Но может ли человек быть счастлив, если видит, что все вокруг постоянно лгут?--Качество: BDRip 400p
Формат: AVI
Видео кодек: XviD
Аудио кодек: AC3
Видео: 720x400, 23.976 fps, ~ 1 700 kbps, 0.252 b/p
Аудио 1: AC3, 48 KHz, 2 ch, 192 kbps [Русский, Дубляж ТВ3]
Аудио 2: AC3, 48 KHz, 6 ch, 320 kbps [Английский]-- --

MI

General
Complete name : Lie.To.Me.S01.BDRip.Rus.Dub.Eng\Lie.To.Me.s01e01.BDRip.Rus.Dub.Eng.avi
Format : AVI
Format/Info : Audio Video Interleave
File size : 756 MiB
Duration : 46mn 42s
Overall bit rate : 2 263 Kbps
Writing application : VirtualDubMod 1.5.10.2 (build 2540/release)
Writing library : VirtualDubMod build 2540/release
Video
ID : 0
Format : MPEG-4 Visual
Format profile : Advanced [email protected]
Format settings, BVOP : 1
Format settings, QPel : No
Format settings, GMC : No warppoints
Format settings, Matrix : Default (MPEG)
Codec ID : XVID
Codec ID/Hint : XviD
Duration : 46mn 42s
Bit rate : 1 737 Kbps
Width : 720 pixels
Height : 400 pixels
Display aspect ratio : 16:9
Frame rate : 23.976 fps
Color space : YUV
Chroma subsampling : 4:2:0
Bit depth : 8 bits
Scan type : Progressive
Compression mode : Lossy
Bits/(Pixel*Frame) : 0.252
Stream size : 580 MiB (77%)
Writing library : XviD 1.2.1 (UTC 2008-12-04)
Audio #1
ID : 1
Format : AC-3
Format/Info : Audio Coding 3
Mode extension : CM (complete main)
Format settings, Endianness : Big
Codec ID : 2000
Duration : 46mn 42s
Bit rate mode : Constant
Bit rate : 192 Kbps
Channel(s) : 2 channels
Channel positions : Front: L R
Sampling rate : 48.0 KHz
Bit depth : 16 bits
Compression mode : Lossy
Stream size : 64.2 MiB (8%)
Alignment : Split accross interleaves
Interleave, duration : 42 ms (1.00 video frame)
Interleave, preload duration : 500 ms
Audio #2
ID : 2
Format : AC-3
Format/Info : Audio Coding 3
Mode extension : CM (complete main)
Format settings, Endianness : Big
Codec ID : 2000
Duration : 46mn 42s
Bit rate mode : Constant
Bit rate : 320 Kbps
Channel(s) : 6 channels
Channel positions : Front: L C R, Side: L R, LFE
Sampling rate : 48.0 KHz
Bit depth : 16 bits
Compression mode : Lossy
Stream size : 107 MiB (14%)
Alignment : Split accross interleaves
Interleave, duration : 42 ms (1.00 video frame)
Interleave, preload duration : 500 ms

Скриншоты

Яндекс.Метрика
Рейтинг@Mail.ru