[ Сегодня на трекере фрилич! Идет свободное скачивание без начисления Download ]

Тринадцатилетняя / Little Thirteen (2012) BDRip 1080p | A

 

Создавать темы 05-Мар-2016 12:51

Тринадцатилетняя / Little ThirteenГод выхода: 2012
Страна: Германия
Студия: Das Kleine Fernsehspiel (ZDF), Hochschule für Film und Fernsehen 'Konrad Wolf', X-Filme Creative Pool
Продолжительность: 01:35:07
Жанр: драма, ...
Режиссер: Кристиан Кландт
В ролях:
Мюриэль Уиммер, Антония Путилофф, Джозеф Конрад Бундшух, Изабелль Гершке, Филипп Кубитца, Герди Цинт, Гиза Флаке, Клаудиа Гайслер-Бадинг, Хирон Элиас Крэз, Пелагия Капоглоу, ...
Перевод: Авторский (одноголосый, закадровый) Сербин Юрий Владимирович
О фильме:
Три дня из жизни группы тинейджеров, пытающихся найти свое место в жизни.
13-летняя Сара и ее лучшая подруга Чарли уже потеряли счет своим парням: свидания на одну ночь, анонимные и неразличимые связи без обязательств. Но когда Сара знакомится в чате с 18-летним Лукасом, ее впервые охватывает жажда реальных отношений и даже настоящей любви. Но интересна ли она Лукасу? Или он просто использует Сару по причинам, не связанным с любовью и привязанностью? Тем временем, Чарли нужно разыскать отца своего будущего ребенка, а матери Сары нужно осознать тот факт, что ее дочь повзрослела…

Кодек: x264
Качество: BDRip 1080p
Видео: 1920x820 , 10500 kbps, 24 fps
Аудио #2: AC-3, 6 ch, 448 kbps (Rus) - AVO Сербин Юрий Владимирович
Аудио #4: DTS, 6 ch, 1509 kbps (Ger)
Субтитры: Немецкие (SDH), Английские

MI

Общее
Уникальный идентификатор : 251622877003948913699651269022526442985 (0xBD4CCDA871419A7CAAA4F41AE7938DE9)
Полное имя : Тринадцатилетняя (Little Thirteen) 2012 BDRip 1080p.mkv
Формат : Matroska
Версия формата : Version 2
Размер файла : 8,08 Гбайт
Продолжительность : 1 ч. 35 м.
Общий поток : 12,2 Мбит/сек
Дата кодирования : UTC 2016-03-05 00:48:35
Программа кодирования : mkvmerge v4.0.0 ('The Stars were mine') сборка от Jun 6 2010 16:18:42
Библиотека кодирования : libebml v1.0.0 + libmatroska v1.0.0
Видео
Идентификатор : 1
Формат : AVC
Формат/Информация : Advanced Video Codec
Профиль формата : [email protected]
Параметр CABAC формата : Да
Параметр ReFrames формата : 5 кадров
Идентификатор кодека : V_MPEG4/ISO/AVC
Продолжительность : 1 ч. 35 м.
Битрейт : 9958 Кбит/сек
Номинальный битрейт : 10,5 Мбит/сек
Ширина : 1920 пикселей
Высота : 820 пикселей
Соотношение сторон : 2,35:1
Режим частоты кадров : Постоянный
Частота кадров : 24,000 кадра/сек
Цветовое пространство : YUV
Субдискретизация насыщенности : 4:2:0
Битовая глубина : 8 бит
Тип развёртки : Прогрессивная
Бит/(Пиксели*Кадры) : 0.264
Размер потока : 6,62 Гбайт (82%)
Библиотека кодирования : x264 core 133 r2334+704+50 a7549b7 tMod [[email protected]:2:0 X86_64]
Настройки программы : cabac=1 / ref=5 / deblock=1:-3:-3 / analyse=0x3:0x113 / me=umh / subme=7 / psy=1 / fade_compensate=0.00 / psy_rd=1.00:0.00 / mixed_ref=1 / me_range=16 / chroma_me=1 / trellis=1 / 8x8dct=1 / cqm=0 / deadzone=21,11 / fast_pskip=1 / chroma_qp_offset=-2 / threads=36 / lookahead_threads=6 / sliced_threads=0 / nr=0 / decimate=1 / interlaced=0 / bluray_compat=0 / constrained_intra=0 / fgo=0 / bframes=3 / b_pyramid=2 / b_adapt=1 / b_bias=0 / direct=3 / weightb=1 / open_gop=0 / weightp=2 / keyint=240 / keyint_min=24 / scenecut=40 / intra_refresh=0 / rc_lookahead=50 / rc=abr / mbtree=1 / bitrate=10456 / ratetol=1.0 / qcomp=0.60 / qpmin=0 / qpmax=69 / qpstep=4 / ip_ratio=1.40 / aq=1:1.00 / aq-sensitivity=10.00 / aq-factor=1.00:1.00:1.00 / aq2=0 / aq3=0
Язык : German
Default : Нет
Forced : Нет
Аудио #1
Идентификатор : 2
Формат : AC-3
Формат/Информация : Audio Coding 3
Расширение режима : CM (complete main)
Параметр Endianness формата : Big
Идентификатор кодека : A_AC3
Продолжительность : 1 ч. 35 м.
Вид битрейта : Постоянный
Битрейт : 448 Кбит/сек
Каналы : 6 каналов
Расположение каналов : Front: L C R, Side: L R, LFE
Частота : 48,0 КГц
Метод сжатия : С потерями
Размер потока : 305 Мбайт (4%)
Заголовок : AVO Сербин Юрий Владимирович
Язык : Russian
Default : Нет
Forced : Нет
Аудио #2
Идентификатор : 3
Формат : DTS
Формат/Информация : Digital Theater Systems
Режим : 16
Параметр Endianness формата : Big
Идентификатор кодека : A_DTS
Продолжительность : 1 ч. 35 м.
Вид битрейта : Постоянный
Битрейт : 1509 Кбит/сек
Каналы : 6 каналов
Расположение каналов : Front: L C R, Side: L R, LFE
Частота : 48,0 КГц
Битовая глубина : 24 бит
Метод сжатия : С потерями
Задержка видео : 11 мс.
Размер потока : 1,00 Гбайт (12%)
Язык : German
Default : Нет
Forced : Нет
Текст #1
Идентификатор : 4
Формат : UTF-8
Идентификатор кодека : S_TEXT/UTF8
Идентификатор кодека/Информация : UTF-8 Plain Text
Язык : German
Default : Нет
Forced : Нет
Текст #2
Идентификатор : 5
Формат : UTF-8
Идентификатор кодека : S_TEXT/UTF8
Идентификатор кодека/Информация : UTF-8 Plain Text
Язык : English
Default : Нет
Forced : Нет

Скриншоты:

Яндекс.Метрика
Рейтинг@Mail.ru