Тайна в их глазах / Secret in Their Eyes (2015) HDRip

 

Создавать темы 10-Фев-2016 08:33

- Тайна в их глазах / Secret in Their Eyes (2015) HDRip - Производство: США
Жанр: Триллер, Детектив
Режиссер: Билли Рэй
Продюсер: Мэтт Джексон, Марк Джонсон, Мэтт Беренсон
Актеры: Чиветел Эджиофор, Николь Кидман, Джулия Робертс, Дин Норрис, Альфред Молина, Джо Коул, Майкл Келли, Зои Грэм, Патрик Дэвис, Эйлин Фогарти
Описание:
Привычное течение жизни дружной команды федералов нарушает страшная трагедия: жестоко убита дочь следователя Джесс… Доказательств недостаточно, и подозреваемого приходится отпустить. Но Рэй, напарник Джесс, безнадежно влюбленный в их начальницу, не оставляет попыток докопаться до истины. И вот спустя десятилетие появляется шанс раскрыть тайну гибели девушки. У правосудия, мести и любви нет сроков давности.

Дата мировой премьеры: 12 ноября 2015
Дата премьеры в России: 19 ноября 2015, «Централ Партнершип»
Продолжительность: 01:51:23
Качество видео: HDRip
Перевод: Дублированный
Субтитры: Отсутствуют
Видео: Xvid, 720x304, ~1848 Kbps
Аудио#1: AC3, 2 ch 384 kbps (Русский)
Аудио#2: AC3, 6 ch 384 kbps (Английский)
Семпл: Скачать

Mediainfo:

Общее
Полное имя : C:\Sekret.v.ih.GLazaH.2015.D.HDRip.NNM-CLUB.avi
Формат : AVI
Формат/Информация : Audio Video Interleave
Профиль формата : OpenDML
Размер файла : 2,05 Гбайт
Продолжительность : 1 ч. 51 м.
Общий поток : 2635 Кбит/сек
Программа кодирования : VirtualDubMod 1.5.10.2 (build 2540/release)
Библиотека кодирования : VirtualDubMod build 2540/release
Видео
Идентификатор : 0
Формат : MPEG-4 Visual
Профиль формата : Advanced [email protected]
Параметр BVOP формата : 2
Параметр QPel формата : Нет
Параметр GMC формата : Без точки перехода
Параметр матрицы формата : Default (MPEG)
Идентификатор кодека : XVID
Идентификатор кодека/Подсказка : XviD
Продолжительность : 1 ч. 51 м.
Битрейт : 1848 Кбит/сек
Ширина : 720 пикселей
Высота : 304 пикселя
Соотношение сторон : 2,35:1
Частота кадров : 23,976 кадра/сек
Цветовое пространство : YUV
Субдискретизация насыщенности : 4:2:0
Битовая глубина : 8 бит
Тип развёртки : Прогрессивная
Метод сжатия : С потерями
Бит/(Пиксели*Кадры) : 0.352
Размер потока : 1,44 Гбайт (70%)
Библиотека кодирования : XviD 1.2.1 (UTC 2008-12-04)
Аудио #1
Идентификатор : 1
Формат : AC-3
Формат/Информация : Audio Coding 3
Расширение режима : CM (complete main)
Параметр Endianness формата : Big
Идентификатор кодека : 2000
Продолжительность : 1 ч. 51 м.
Вид битрейта : Постоянный
Битрейт : 384 Кбит/сек
Каналы : 2 канала
Расположение каналов : Front: L R
Частота : 48,0 КГц
Битовая глубина : 16 бит
Метод сжатия : С потерями
Размер потока : 307 Мбайт (15%)
Выравнивание : Разделение по промежуткам
Продолжительность промежутка : 42 мс. (1,00 видеокадр)
Время предзагрузки промежутка : 500 мс.
Аудио #2
Идентификатор : 2
Формат : AC-3
Формат/Информация : Audio Coding 3
Расширение режима : CM (complete main)
Параметр Endianness формата : Big
Идентификатор кодека : 2000
Продолжительность : 1 ч. 51 м.
Вид битрейта : Постоянный
Битрейт : 384 Кбит/сек
Каналы : 6 каналов
Расположение каналов : Front: L C R, Side: L R, LFE
Частота : 48,0 КГц
Битовая глубина : 16 бит
Метод сжатия : С потерями
Размер потока : 307 Мбайт (15%)
Выравнивание : Разделение по промежуткам
Продолжительность промежутка : 42 мс. (1,00 видеокадр)
Время предзагрузки промежутка : 500 мс.
Скриншоты:
Время раздачи: 24/7 до 10 скачавших
Яндекс.Метрика
Рейтинг@Mail.ru