Самый лучший день (2015) WEB-DL 1080p | iTunes

 

Создавать темы 25-Янв-2016 16:35

Информация о фильме
Название: Самый лучший день
Год выхода: 2015
Жанр: Комедия, музыка
Режиссер: Жора Крыжовников
В ролях: Дмитрий Нагиев, Юлия Александрова, Ольга Серябкина, Инна Чурикова, Михаил Боярский, Елена Яковлева, Владислав Ветров, Валентина Мазунина, Ян Цапник, Андрей Малахов
О фильме:
Успешному сотруднику ДПС Пете Васютину уже давно пора заводить семью, а он живет с мамой, хозяйкой придорожного кафе. И невеста есть – королева бензоколонки, кассирша Оля. В тот самый день, когда Петя решает сделать Оле предложение, в его служебную машину врезается пьяная поп-звезда Алина Шёпот. Чтобы избежать наказания, Алина решает соблазнить Петю...-«Душа поёт!»- -Страна: Россия
Студия: Базелевс Продакшн
Продолжительность: 01:46:54
Перевод: Оригинал - iTunes-Файл
Формат: MKV
Качество: WEB-DL (1080p)
Видео: 1920x1080 at 24.000 fps (True24p), MPEG-4 AVC, ~5009 kbps
Аудио#: Russian: 48 kHz, AC3, 3/2 (L,C,R,l,r) + LFE ch, ~384.00 kbps
Субтитры: | отсутствуют |
Навигация по главам: Есть
-

MediaInfo

Общее
Уникальный идентификатор : 186591728392394984900037810886172319656 (0x8C60427C4315730FB51FA7CE33819FA8)
Полное имя : D:Samyy.luchshiy.den.2015.1080p.WEB-DL.Rus.HDCLUB.mkv
Формат : Matroska
Версия формата : Version 2
Размер файла : 4,11 Гбайт
Продолжительность : 1 ч. 46 м.
Общий поток : 5502 Кбит/сек
Название фильма : Samyy luchshiy den! (2015) - Release for HDCLUB
Дата кодирования : UTC 2016-01-24 20:02:54
Программа кодирования : mkvmerge v3.4.0 ('Rapunzel') built on May 15 2010 09:38:20
Библиотека кодирования : libebml v0.8.0 + libmatroska v0.9.0
Видео
Идентификатор : 1
Формат : AVC
Формат/Информация : Advanced Video Codec
Профиль формата : [email protected]
Параметр CABAC формата : Да
Параметр ReFrames формата : 4 кадра
Идентификатор кодека : V_MPEG4/ISO/AVC
Продолжительность : 1 ч. 46 м.
Битрейт : 5009 Кбит/сек
Ширина : 1920 пикселей
Высота : 1080 пикселей
Соотношение сторон : 16:9
Режим частоты кадров : Постоянный
Частота кадров : 24,000 кадра/сек
Цветовое пространство : YUV
Субдискретизация насыщенности : 4:2:0
Битовая глубина : 8 бит
Тип развёртки : Прогрессивная
Бит/(Пиксели*Кадры) : 0.101
Размер потока : 3,74 Гбайт (91%)
Заголовок : Samyy luchshiy den! (2015) - Release for HDCLUB
Язык : Russian
Default : Да
Forced : Нет
Цветовой диапазон : Limited
Основные цвета : BT.709
Характеристики трансфера : BT.709
Коэффициенты матрицы : BT.709
Аудио
Идентификатор : 2
Формат : AC-3
Формат/Информация : Audio Coding 3
Расширение режима : CM (complete main)
Параметр Endianness формата : Big
Идентификатор кодека : A_AC3
Продолжительность : 1 ч. 46 м.
Вид битрейта : Постоянный
Битрейт : 384 Кбит/сек
Каналы : 6 каналов
Расположение каналов : Front: L C R, Side: L R, LFE
Частота : 48,0 КГц
Частота кадров : 31,250 кадров/сек (1536 spf)
Метод сжатия : С потерями
Размер потока : 294 Мбайт (7%)
Заголовок : AC3 5.1 @ 384 kbps
Язык : Russian
Default : Да
Forced : Нет
Меню
00:00:00.000 : en:1
00:06:21.000 : en:2
00:11:40.000 : en:3
00:17:17.000 : en:4
00:22:26.000 : en:5
00:28:25.000 : en:6
00:34:38.000 : en:7
00:41:31.000 : en:8
00:47:00.000 : en:9
00:53:24.000 : en:10
00:59:26.000 : en:11
01:04:54.000 : en:12
01:11:11.000 : en:13
01:16:52.000 : en:14
01:22:58.000 : en:15
01:28:08.000 : en:16
01:33:29.000 : en:17
01:39:37.000 : en:18

Скриншоты

Релиз от:
Яндекс.Метрика
Рейтинг@Mail.ru