Шпионский мост / Bridge of Spies (2015) BDRip 1080p | Чистый звук

 

Создавать темы 23-Янв-2016 01:01

Информация о фильме
Название: Шпионский мост
Оригинальное название: Bridge of Spies
Год выпуска: 2015
Страна: США, Германия, Индия
Жанр: триллер, драма, биография-Перевод: Дубляж - [Чистый звук] Без рекламы
Субтитры: русские, английские
Продолжительность: 02:21:19-Режиссер: Стивен Спилберг
В ролях: Том Хэнкс (James B. Donovan), Марк Райлэнс (Rudolf Abel), Эми Райан (Mary Donovan), Алан Алда (Thomas Watters Jr.), Остин Стоуэлл (Francis Gary Powers), Скотт Шеперд (Hoffman), Джесси Племонс (Joe Murphy), Доменик Ломбардоззи (Agent Blasco), Себастьян Кох (Wolfgang Vogel), Ив Хьюсон (Carol Donovan), Дэкин Мэтьюз (Judge Byers), Майкл Гэстон (Agent Williams)-Описание:
Действие фильма происходит на фоне серии реальных исторических событий и рассказывает о бруклинском адвокате Джеймсе Доноване, который оказывается в эпицентре холодной войны, когда ЦРУ отправляет его на практически невозможное задание - договориться об освобождении захваченного в СССР американского пилота самолета-разведчика U2.-Рейтинг:

MPAA: PG-13 - Детям до 13 лет просмотр не желателен-Качество: BDRip 1080p
Формат: MKV
Видео: AVC, 1920x800 (2.40:1), 9316 kbps, 23,976 fps, 0,253 bpp
Аудио №1: русский / AC3 / 2.0 / 48 kHz / 192 kbps / 16 bit
Аудио №2: английский / AC3 / 5.1 / 48 kHz / 640 kbps / 16 bit
Навигация по главам: есть
Семпл-Релиз от: by schultz

ОтчетМедиаИнфо

General
Unique ID : 197647546851424490014528648457255730192 (0x94B1886B95348BC6BD865CC437813C10)
Complete name : D:downloadBridge.of.Spies.2015.BDRip 1080p by schultz R.G.Resident.mkv
Format : Matroska
Format version : Version 4 / Version 2
File size : 9.98 GiB
Duration : 2h 21mn
Overall bit rate : 10.1 Mbps
Encoded date : UTC 2016-01-22 05:44:52
Writing application : mkvmerge v6.7.0 ('Back to the Ground') 64bit built on Jan 8 2014 15:10:52
Writing library : libebml v1.3.0 + libmatroska v1.4.1
Video
ID : 1
Format : AVC
Format/Info : Advanced Video Codec
Format profile : [email protected]
Format settings, CABAC : Yes
Format settings, ReFrames : 5 frames
Codec ID : V_MPEG4/ISO/AVC
Duration : 2h 21mn
Bit rate : 9 316 Kbps
Width : 1 920 pixels
Height : 800 pixels
Display aspect ratio : 2.40:1
Frame rate : 23.976 fps
Color space : YUV
Chroma subsampling : 4:2:0
Bit depth : 8 bits
Scan type : Progressive
Bits/(Pixel*Frame) : 0.253
Stream size : 8.96 GiB (90%)
Writing library : x264 core 146 r2538 121396c
Encoding settings : cabac=1 / ref=5 / deblock=1:-3:-3 / analyse=0x3:0x113 / me=umh / subme=11 / psy=1 / psy_rd=1.00:0.00 / mixed_ref=1 / me_range=48 / chroma_me=1 / trellis=2 / 8x8dct=1 / cqm=0 / deadzone=21,11 / fast_pskip=0 / chroma_qp_offset=-2 / threads=12 / lookahead_threads=2 / sliced_threads=0 / nr=0 / decimate=1 / interlaced=0 / bluray_compat=0 / constrained_intra=0 / bframes=9 / b_pyramid=2 / b_adapt=2 / b_bias=0 / direct=3 / weightb=1 / open_gop=0 / weightp=2 / keyint=240 / keyint_min=23 / scenecut=40 / intra_refresh=0 / rc_lookahead=40 / rc=2pass / mbtree=1 / bitrate=9316 / ratetol=1.0 / qcomp=0.60 / qpmin=0 / qpmax=69 / qpstep=4 / cplxblur=20.0 / qblur=0.5 / vbv_maxrate=14000 / vbv_bufsize=14000 / nal_hrd=none / filler=0 / ip_ratio=1.40 / aq=1:1.00
Language : English
Default : Yes
Forced : No
Audio #1
ID : 2
Format : AC-3
Format/Info : Audio Coding 3
Mode extension : CM (complete main)
Codec ID : A_AC3
Duration : 2h 21mn
Bit rate mode : Constant
Bit rate : 192 Kbps
Channel(s) : 2 channels
Channel positions : Front: L R
Sampling rate : 48.0 KHz
Bit depth : 16 bits
Compression mode : Lossy
Delay relative to video : 2s 500ms
Stream size : 194 MiB (2%)
Title : Дубляж - Чистый звук
Language : Russian
Default : No
Forced : No
Audio #2
ID : 3
Format : AC-3
Format/Info : Audio Coding 3
Mode extension : CM (complete main)
Codec ID : A_AC3
Duration : 2h 21mn
Bit rate mode : Constant
Bit rate : 640 Kbps
Channel(s) : 6 channels
Channel positions : Front: L C R, Side: L R, LFE
Sampling rate : 48.0 KHz
Bit depth : 16 bits
Compression mode : Lossy
Stream size : 647 MiB (6%)
Title : Оригинал
Language : English
Default : Yes
Forced : No
Text #1
ID : 4
Format : UTF-8
Codec ID : S_TEXT/UTF8
Codec ID/Info : UTF-8 Plain Text
Title : Русские, форсированные - на текст
Language : Russian
Default : Yes
Forced : No
Text #2
ID : 5
Format : UTF-8
Codec ID : S_TEXT/UTF8
Codec ID/Info : UTF-8 Plain Text
Language : English
Default : No
Forced : No
Menu
00:00:00.000 : en:Chapter 1
00:10:29.462 : en:Chapter 2
00:17:46.482 : en:Chapter 3
00:22:09.828 : en:Chapter 4
00:25:27.901 : en:Chapter 5
00:31:18.210 : en:Chapter 6
00:37:45.722 : en:Chapter 7
00:45:29.268 : en:Chapter 8
00:52:36.695 : en:Chapter 9
01:00:39.427 : en:Chapter 10
01:07:17.867 : en:Chapter 11
01:16:52.399 : en:Chapter 12
01:33:55.672 : en:Chapter 13
01:45:41.752 : en:Chapter 14
01:56:31.193 : en:Chapter 15
02:07:20.550 : en:Chapter 16
02:14:18.801 : en:Chapter 17

Скриншоты

Яндекс.Метрика
Рейтинг@Mail.ru