Легенда / Legend (2015) WEB-DL 720p | iTunes

 

Создавать темы 16-Янв-2016 00:19

Информация о фильме
Название: Легенда
Оригинальное название: Legend
Год выхода: 2015
Жанр: криминал, триллер, драма
Режиссер: Брайан Хелгеленд
В ролях: Том Харди, Эмили Браунинг, Дэвид Тьюлис, Даффи, Кристофер Экклстон, Чазз Пальминтери, Колин Морган, Джошуа Хилл, Пол Андерсон, Тара Фитцджеральд
О фильме: Фильм расскажет историю близнецов Реджи и Ронни Крэй, культовых фигур преступного мира Великобритании 1960-х. Братья возглавляли самую влиятельную бандитскую группировку Ист-Энда. В их послужном списке: вооруженные грабежи, рэкет, поджоги, покушения, убийства и собственный ночной клуб, куда доезжали даже голливудские знаменитости. Среди их жертв — криминальные авторитеты Джек МакВитти и Джордж Корнелл.- -Выпущено: Великобритания, Франция / Anton Capital Entertainment (ACE), Cross Creek Pictures, Studio Canal, Working Title Films
Продолжительность: 02:11:09
Озвучивание: Дублированное [iTunes]-Файл
Формат: MKV
Качество: WEB-DL 720p
Видео: MPEG-4 AVC, 3887 kb/s, 1280x536
Аудио: AC3, 384 kb/s (6 ch)

MI

Format : Matroska
Format version : Version 4 / Version 2
File size : 3.99 GiB
Duration : 2h 11mn
Overall bit rate : 4 358 Kbps
Encoded date : UTC 2016-01-15 19:11:59
Writing application : mkvmerge v8.3.0 ('Over the Horizon') 64bit
Writing library : libebml v1.3.1 + libmatroska v1.4.2
Video
ID : 1
Format : AVC
Format/Info : Advanced Video Codec
Format profile : [email protected]
Format settings, CABAC : No
Format settings, ReFrames : 2 frames
Codec ID : V_MPEG4/ISO/AVC
Duration : 2h 11mn
Bit rate : 3 887 Kbps
Width : 1 280 pixels
Height : 536 pixels
Display aspect ratio : 2.40:1
Frame rate mode : Constant
Frame rate : 24.000 fps
Color space : YUV
Chroma subsampling : 4:2:0
Bit depth : 8 bits
Scan type : Progressive
Bits/(Pixel*Frame) : 0.236
Stream size : 3.56 GiB (89%)
Language : English
Default : Yes
Forced : No
Color range : Limited
Color primaries : BT.709
Transfer characteristics : BT.709
Matrix coefficients : BT.709
Audio
ID : 2
Format : AC-3
Format/Info : Audio Coding 3
Mode extension : CM (complete main)
Format settings, Endianness : Big
Codec ID : A_AC3
Duration : 2h 11mn
Bit rate mode : Constant
Bit rate : 384 Kbps
Channel(s) : 6 channels
Channel positions : Front: L C R, Side: L R, LFE
Sampling rate : 48.0 KHz
Bit depth : 16 bits
Compression mode : Lossy
Stream size : 360 MiB (9%)
Language : Russian
Default : Yes
Forced : No
Menu
00:00:00.000 : en:Глава 1
00:05:40.000 : en:Глава 2
00:11:08.000 : en:Глава 3
00:17:25.000 : en:Глава 4
00:23:41.000 : en:Глава 5
00:29:14.000 : en:Глава 6
00:34:32.000 : en:Глава 7
00:40:30.000 : en:Глава 8
00:46:06.000 : en:Глава 9
00:51:12.000 : en:Глава 10
00:57:58.000 : en:Глава 11
01:03:43.000 : en:Глава 12
01:09:51.000 : en:Глава 13
01:15:57.000 : en:Глава 14
01:21:32.000 : en:Глава 15
01:26:50.000 : en:Глава 16
01:32:26.000 : en:Глава 17
01:37:40.000 : en:Глава 18
01:43:10.000 : en:Глава 19
01:48:47.000 : en:Глава 20
01:54:16.000 : en:Глава 21
01:59:21.000 : en:Глава 22

Скриншоты:

Яндекс.Метрика
Рейтинг@Mail.ru