Бородач (2016) SATRip (сезон 1, серии 1-14 из 15) (обновляемая)

 

Создавать темы 15-Янв-2016 17:53

- Бородач (2016) SATRip- Телекомпания: ТНТ
Жанр: Комедия
Режиссер: Заур Болотаев
Актеры: Михаил Галустян, Демис Карибов, Евгений Казанцев, Мария Староторжская, Михаил Куряев, Александр Луканичев, Дмитрий Меденников, Ксения Бехтина, Анастасия Лучинина
Описание:
Обаятельный, но невезучий охранник Александр Родионович Бородач впутывается вместе со своими друзьями в невообразимые истории, пытается покорить сердце стриптизерши Ирины Скоробейниковой, но неминуемо оказывается в отделении полиции, где его с пристрастием допрашивает начальник в исполнении резидента Comedy Club Демиса Карибидиса.-Дата премьеры в России: 15 января 2016
Продолжительность: ~ 00:22:00 серия
Качество видео: SATRip
Перевод: Не требуется (русский язык)
Видео: MPEG4, XviD, 720x400 (16:9), 25.000 fps, 1 648 Kbps (0.229 bit/pixel)
Аудио: MP3, 48.0 KHz, 2 ch, 192 Kbps, CBR

Mediainfo:

Формат                                   : AVI
Формат/Информация                        : Audio Video Interleave
Размер файла                             : 284 Мбайт
Продолжительность                        : 21 м.
Общий поток                              : 1849 Кбит/сек
Программа кодирования                    : VirtualDubMod 1.5.10.3 (build 2550/release)
Библиотека кодирования                   : VirtualDubMod build 2550/release
Видео
Идентификатор                            : 0
Формат                                   : MPEG-4 Visual
Профиль формата                          : Advanced [email protected]
Параметр BVOP формата                    : 1
Параметр QPel формата                    : Нет
Параметр GMC формата                     : Без точки перехода
Параметр матрицы формата                 : Default (MPEG)
Идентификатор кодека                     : XVID
Идентификатор кодека/Подсказка           : XviD
Продолжительность                        : 21 м.
Битрейт                                  : 1648 Кбит/сек
Ширина                                   : 720 пикселей
Высота                                   : 400 пикселей
Соотношение сторон                       : 16:9
Частота кадров                           : 25,000 кадров/сек
Цветовое пространство                    : YUV
Субдискретизация насыщенности            : 4:2:0
Битовая глубина                          : 8 бит
Тип развёртки                            : Прогрессивная
Метод сжатия                             : С потерями
Бит/(Пиксели*Кадры)                      : 0.229
Размер потока                            : 253 Мбайт (89%)
Библиотека кодирования                   : XviD 1.2.1 (UTC 2008-12-04)
Аудио
Идентификатор                            : 1
Формат                                   : MPEG Audio
Версия формата                           : Version 1
Профиль формата                          : Layer 3
Идентификатор кодека                     : 55
Идентификатор кодека/Подсказка           : MP3
Продолжительность                        : 21 м.
Вид битрейта                             : Постоянный
Битрейт                                  : 192 Кбит/сек
Каналы                                   : 2 канала
Частота                                  : 48,0 КГц
Метод сжатия                             : С потерями
Размер потока                            : 29,5 Мбайт (10%)
Выравнивание                             : Соединение по промежуткам
Продолжительность промежутка             : 40  мс. (1,00 видеокадр)
Время предзагрузки промежутка            : 504  мс.
Библиотека кодирования                   : LAME3.99r
Настройки программы                      : -m s -V 4 -q 2 -lowpass 18.6 -b 192

Внимание! Раздача ведётся путём добавления новых серий

Внимание! Раздача ведётся путём добавления новых серий; при каждом добавлении создаётся новый торрент.
Чтобы начать докачку новой серии, пользователям необходимо сделать следующее:
1. Остановить скачивание;
2. Удалить старый торрент у себя из клиента (старые серии удалять не надо);
3. Скачать новый торрент и запустить его у себя в клиенте вместо старого, при этом указать клиенту путь в старую папку куда и должно происходить скачивание новых серий. Ваш клиент при этом должен произвести хеширование (проверку) старой папки и будет докачивать только те серии, которых у вас ещё нет. Старые серии при этом не удаляются, а продолжают раздаваться! Eсли вы уже удалили старые серии, то предотвратить повторную закачку старых серий можно, отжав галочку в соответствующих местах при запуске нового торрента.
Скриншоты:
Время раздачи: 24/7. До первых 5 скачавших.

Комментарий от vladios13


Добавлены 13-14 серии
Яндекс.Метрика
Рейтинг@Mail.ru