[ Сегодня на трекере фрилич! Идет свободное скачивание без начисления Download ]

Песок / The Sand (Исаак Габаефф / Isaac Gabaeff) [2015 г., ужасы, HDRip] VO

 

Создавать темы 10-Янв-2016 13:38

-Песок / The Sand-- Производство: США, Allegra Pictures, Scatena & Rosner Films
Год выпуска: 2015 г.
Жанр: ужасы
Продолжительность: 01:24:09Мировая премьера: 28 августа 2015
Перевод: Любительский (одноголосый, закадровый) [Хихикающий доктор]
Режиссер: Исаак Габаефф / Isaac Gabaeff-В ролях: Брук Батлер, Джейми Кеннеди, Митчел Муссо, Дин Гейер, Мэган Холдер, Клео Берри, Синтия Марелл, Гектор Дэвид мл., Никки Ли, Брайан Бун-Описание: После ночной вечеринки, студентики просыпаются утром на пляже, песок которого начинает их засасывать.-
Качество видео: HDRip
Контейнер: AVI
Видео кодек: XviD
Аудио кодек: AC3
Видео: XviD, 1930 Кбит/с, 720x304, 23,976 кадра/сек, 0.368 bit/pixel
Аудио: Русский, 48,0 КГц, (АС3, 6 ch, 384 Кбит/с)
Аудио #2: английский 48,0 КГц, (АС3, 6 ch, 384 Кбит/с)
Cубтитры: отсутствуют

Доп.Информация:

Общее
Полное имя : E:\MMMM\The.Sand.2015.HDRip.XviD.avi
Формат : AVI
Формат/Информация : Audio Video Interleave
Размер файла : 1,59 Гбайт
Продолжительность : 1 ч. 24 м.
Общий поток : 2712 Кбит/сек
Программа кодирования : VirtualDubMod 1.5.10.2 (build 2540/release)
Библиотека кодирования : VirtualDubMod build 2540/releaseВидео
Идентификатор : 0
Формат : MPEG-4 Visual
Профиль формата : Advanced [email protected]
Параметр BVOP формата : 2
Параметр QPel формата : Нет
Параметр GMC формата : Без точки перехода
Параметр матрицы формата : Default (H.263)
Режим смешивания : Сжатый битовый поток
Идентификатор кодека : XVID
Идентификатор кодека/Подсказка : XviD
Продолжительность : 1 ч. 24 м.
Битрейт : 1930 Кбит/сек
Ширина : 720 пикселей
Высота : 304 пикселя
Соотношение сторон : 2,35:1
Частота кадров : 23,976 кадра/сек
Цветовое пространство : YUV
Субдискретизация насыщенности : 4:2:0
Битовая глубина : 8 бит
Тип развёртки : Прогрессивная
Метод сжатия : С потерями
Бит/(Пиксели*Кадры) : 0.368
Размер потока : 1,13 Гбайт (71%)
Библиотека кодирования : XviD 66Аудио #1
Идентификатор : 1
Формат : AC-3
Формат/Информация : Audio Coding 3
Расширение режима : CM (complete main)
Параметр Endianness формата : Big
Идентификатор кодека : 2000
Продолжительность : 1 ч. 24 м.
Вид битрейта : Постоянный
Битрейт : 384 Кбит/сек
Каналы : 6 каналов
Расположение каналов : Front: L C R, Side: L R, LFE
Частота : 48,0 КГц
Метод сжатия : С потерями
Размер потока : 231 Мбайт (14%)
Выравнивание : Разделение по промежуткам
Продолжительность промежутка : 42 мс. (1,00 видеокадр)
Время предзагрузки промежутка : 500 мс.Аудио #2
Идентификатор : 2
Формат : AC-3
Формат/Информация : Audio Coding 3
Расширение режима : CM (complete main)
Параметр Endianness формата : Big
Идентификатор кодека : 2000
Продолжительность : 1 ч. 24 м.
Вид битрейта : Постоянный
Битрейт : 384 Кбит/сек
Каналы : 6 каналов
Расположение каналов : Front: L C R, Side: L R, LFE
Частота : 48,0 КГц
Метод сжатия : С потерями
Размер потока : 231 Мбайт (14%)
Выравнивание : Соединение по промежуткам
Продолжительность промежутка : 42 мс. (1,00 видеокадр)
Время предзагрузки промежутка : 512 мс.

Скриншоты

Яндекс.Метрика
Рейтинг@Mail.ru