Рэкетир 2 (2015) WEBRip

 

Создавать темы 03-Янв-2016 17:14

-Рэкетир 2 (2015) WEBRip- Производство: Казахстан, Sataifilm
Жанр: Боевик, Драма, Криминал
Режиссер: Акан Сатаев
Продюсер: Акан Сатаев
Актеры: Аружан Джазильбекова, Асель Сагатова, Аян Утепберген, Фархад Абдраимов, Саят Исембаев, Жан Байжанбаев, Азамат Сатыбалды, Дастен Шакиров
Описание:
Судьба дарит главному герою второй шанс. Все считали его погибшим. С момента гибели Руслана прошло уже десять лет. Саян — преданный помощник Руслана — принял решение отойти от дел и начать жизнь с чистого листа. Когда к нему в дом пришел младший брат погибшего начальника Була, Саян насторожился. И не зря. Була хотел мести, но Саян не готов возвращаться к прошлому. Тут-то и начинается самое интересное…

Дата мировой премьеры: 28 мая 2015
Продолжительность: 01:51:52
Качество: WEBRip
Перевод: Не требуется (русский)
Субтитры: Отсутствуют
Видео: XviD, 1612 kb/s, 720x304
Аудио: AC3 Dolby Digital, 2/0 (L,R) ch, ~128 kbps
Семпл: Скачать

Доп.Информация:

Полное имя : D:\Релизы\Рэкетир.2.2015.WEBRip.nnm-club.avi
Формат : AVI
Формат/Информация : Audio Video Interleave
Размер файла : 1,37 Гбайт
Продолжительность : 1 ч. 51 м.
Общий поток : 1749 Кбит/сек
Программа кодирования : VirtualDubMod 1.5.10.2 (build 2540/release)
Библиотека кодирования : VirtualDubMod build 2540/release
Видео
Идентификатор : 0
Формат : MPEG-4 Visual
Профиль формата : Advanced [email protected]
Параметр BVOP формата : 2
Параметр QPel формата : Нет
Параметр GMC формата : Без точки перехода
Параметр матрицы формата : Default (MPEG)
Идентификатор кодека : XVID
Идентификатор кодека/Подсказка : XviD
Продолжительность : 1 ч. 51 м.
Битрейт : 1612 Кбит/сек
Ширина : 720 пикселей
Высота : 304 пикселя
Соотношение сторон : 2,35:1
Частота кадров : 25,000 кадров/сек
Цветовое пространство : YUV
Субдискретизация насыщенности : 4:2:0
Битовая глубина : 8 бит
Тип развёртки : Прогрессивная
Метод сжатия : С потерями
Бит/(Пиксели*Кадры) : 0.295
Размер потока : 1,26 Гбайт (92%)
Библиотека кодирования : XviD 1.2.1 (UTC 2008-12-04)
Аудио
Идентификатор : 1
Формат : AC-3
Формат/Информация : Audio Coding 3
Расширение режима : CM (complete main)
Параметр Endianness формата : Big
Идентификатор кодека : 2000
Продолжительность : 1 ч. 51 м.
Вид битрейта : Постоянный
Битрейт : 128 Кбит/сек
Каналы : 2 канала
Расположение каналов : Front: L R
Частота : 44,1 КГц
Метод сжатия : С потерями
Размер потока : 102 Мбайт (7%)
Выравнивание : Разделение по промежуткам
Продолжительность промежутка : 40 мс. (1,00 видеокадр)
Время предзагрузки промежутка : 500 мс.
Скриншоты:Время раздачи: 24/7, до 5 скачавших.
Яндекс.Метрика
Рейтинг@Mail.ru