Superнянь 2 / Babysitting 2 (2015) WEB-DL 1080p | iTunes

 

Создавать темы 01-Янв-2016 19:54

Superнянь 2 / Babysitting 2 Год выхода: 2015
Жанр: комедия
Режиссер: Николас Бенаму, Филипп Лашо
В ролях:
Филипп Лашо, Алис Давид, Венсан Дезанья, Тарек Будали, Кристиан Клавье, Жюльен Аррути, Грегуар Людиг, Давид Марсе, Шарлотта Габрис, Бето Бенитес
О фильме:
Влюбленная парочка Фрэнк и Соня приглашают своих друзей на отдых в Бразилию, в роскошный отель богатенького папы Сони. Планировалось, что это будет отдых мечты, а Фрэнк сделает Соне предложение посреди всей этой экзотики. Но его попытки получить одобрение отца оборачиваются полным провалом. Ведь с такими друзьями, как у него, и враги не нужны! Но настоящая катастрофа — впереди. Когда друзья — сексуально озабоченный Сэм, наивный чудак Эрнест и умственно отсталый Алекс — вместе с беднягой Фрэнком собрались на экскурсию, ушлый папаша пользуется возможностью и засылает в джунгли с этой бандой свою крикливую и надоедливую старушку. В общем, Амазонка и ее девственные леса еще никогда не были в такой опасности!


Выпущено: Франция / Axel Films, Film Factory
Продолжительность: 01:32:41
Озвучивание: Дублированное [iTunes]
Файл
Формат: MKV
Качество: WEB-DL 1080p
Видео: MPEG-4 AVC, 5050 kb/s, 1920x1080
Аудио: AC3, 384 kb/s (6 ch)

MI

Format                         : Matroska
Format version                 : Version 2
File size                      : 3.59 GiB
Duration                       : 1h 32mn
Overall bit rate               : 5 544 Kbps
Encoded date                   : UTC 2015-12-31 19:53:39
Writing application            : mkvmerge v8.3.0 ('Over the Horizon') 64bit
Writing library                : libebml v1.3.1 + libmatroska v1.4.2
Video
ID                             : 1
Format                         : AVC
Format/Info                    : Advanced Video Codec
Format profile                 : [email protected]
Format settings, CABAC         : Yes
Format settings, ReFrames      : 4 frames
Codec ID                       : V_MPEG4/ISO/AVC
Duration                       : 1h 32mn
Bit rate                       : 5 050 Kbps
Width                          : 1 920 pixels
Height                         : 1 080 pixels
Display aspect ratio           : 16:9
Frame rate mode                : Constant
Frame rate                     : 24.000 fps
Color space                    : YUV
Chroma subsampling             : 4:2:0
Bit depth                      : 8 bits
Scan type                      : Progressive
Bits/(Pixel*Frame)             : 0.101
Stream size                    : 3.27 GiB (91%)
Language                       : English
Default                        : Yes
Forced                         : No
Color range                    : Limited
Color primaries                : BT.709
Transfer characteristics       : BT.709
Matrix coefficients            : BT.709
Audio
ID                             : 2
Format                         : AC-3
Format/Info                    : Audio Coding 3
Mode extension                 : CM (complete main)
Format settings, Endianness    : Big
Codec ID                       : A_AC3
Duration                       : 1h 32mn
Bit rate mode                  : Constant
Bit rate                       : 384 Kbps
Channel(s)                     : 6 channels
Channel positions              : Front: L C R, Side: L R, LFE
Sampling rate                  : 48.0 KHz
Bit depth                      : 16 bits
Compression mode               : Lossy
Stream size                    : 255 MiB (7%)
Language                       : Russian
Default                        : Yes
Forced                         : No
Menu
00:00:00.000                   : en:Глава 1
00:05:23.000                   : en:Глава 2
00:11:12.000                   : en:Глава 3
00:16:49.000                   : en:Глава 4
00:22:20.000                   : en:Глава 5
00:27:57.000                   : en:Глава 6
00:33:22.000                   : en:Глава 7
00:38:34.000                   : en:Глава 8
00:44:03.000                   : en:Глава 9
00:50:17.000                   : en:Глава 10
00:56:20.000                   : en:Глава 11
01:01:31.000                   : en:Глава 12
01:06:45.000                   : en:Глава 13
01:12:06.000                   : en:Глава 14
01:17:41.000                   : en:Глава 15
01:23:36.000                   : en:Глава 16

Скриншоты:

Яндекс.Метрика
Рейтинг@Mail.ru