[ Сегодня на трекере фрилич! Идет свободное скачивание без начисления Download ]

Зеленая карета (2015) WEB-DL 1080p | iTunes

 

Создавать темы 17-Дек-2015 23:23

Зеленая карета
Оригинальное название: Зеленая карета
Год выхода: 2015
Жанр: драма
Режиссер: Олег Асадулин
В ролях:
Андрей Мерзликин, Виктория Исакова, Александр Мичков, Сергей Юшкевич, Владимир Меньшов, Анна Чиповская, Ян Цапник, Женя Малахова, Дмитрий Астрахан, Андрей Леонов
О фильме:
Вадим Раевский — известный режиссер, у которого есть все: деньги, красивые женщины, всеобщее признание. Его новый фильм даже выдвигают на «Оскар». Казалось, удача сама преследует его, но всегда ли она будет к нему благосклонна? Буквально в один миг его привычный мир рушится. Вадим пытается разобраться в случившемся, но чем дальше он заходит в своем расследовании, тем больше шокирующих подробностей ему открывается…

Выпущено: Россия
Продолжительность: 01:30:27
Озвучивание: Оригинальное [iTunes]
Файл
Формат: MKV (x264)
Качество: WEB-DL 1080p
Видео: 4409 kb/s, 1920x802
Аудио: AC3, 384 kb/s (6 ch)

МедиаИнфо

Format                         : Matroska
Format version                 : Version 4 / Version 2
File size                      : 3.09 GiB
Duration                       : 1h 30mn
Overall bit rate               : 4 890 Kbps
Encoded date                   : UTC 2015-12-17 05:05:39
Writing application            : mkvmerge v8.3.0 ('Over the Horizon') 64bit
Writing library                : libebml v1.3.1 + libmatroska v1.4.2
Video
ID                             : 1
Format                         : AVC
Format/Info                    : Advanced Video Codec
Format profile                 : [email protected]
Format settings, CABAC         : Yes
Format settings, ReFrames      : 5 frames
Codec ID                       : V_MPEG4/ISO/AVC
Duration                       : 1h 30mn
Bit rate                       : 4 409 Kbps
Width                          : 1 920 pixels
Height                         : 802 pixels
Display aspect ratio           : 2.40:1
Frame rate mode                : Constant
Frame rate                     : 25.000 fps
Color space                    : YUV
Chroma subsampling             : 4:2:0
Bit depth                      : 8 bits
Scan type                      : Progressive
Bits/(Pixel*Frame)             : 0.115
Stream size                    : 2.79 GiB (90%)
Language                       : English
Default                        : Yes
Forced                         : No
Color range                    : Limited
Color primaries                : BT.709
Transfer characteristics       : BT.709
Matrix coefficients            : BT.709
Audio
ID                             : 2
Format                         : AC-3
Format/Info                    : Audio Coding 3
Mode extension                 : CM (complete main)
Format settings, Endianness    : Big
Codec ID                       : A_AC3
Duration                       : 1h 30mn
Bit rate mode                  : Constant
Bit rate                       : 384 Kbps
Channel(s)                     : 6 channels
Channel positions              : Front: L C R, Side: L R, LFE
Sampling rate                  : 48.0 KHz
Bit depth                      : 16 bits
Compression mode               : Lossy
Stream size                    : 248 MiB (8%)
Language                       : Russian
Default                        : Yes
Forced                         : No
Menu
00:00:00.000                   : en:Глава 1
00:05:25.000                   : en:Глава 2
00:11:14.000                   : en:Глава 3
00:16:42.000                   : en:Глава 4
00:22:20.000                   : en:Глава 5
00:27:38.000                   : en:Глава 6
00:33:00.000                   : en:Глава 7
00:39:33.000                   : en:Глава 8
00:45:51.000                   : en:Глава 9
00:51:44.000                   : en:Глава 10
00:58:18.000                   : en:Глава 11
01:04:33.000                   : en:Глава 12
01:10:17.000                   : en:Глава 13
01:15:40.000                   : en:Глава 14
01:21:59.000                   : en:Глава 15

Скриншоты:

Яндекс.Метрика
Рейтинг@Mail.ru