[ Сегодня на трекере фрилич! Идет свободное скачивание без начисления Download ]

Ужастики / Goosebumps (2015) WEBRip 720p | Чистый звук

 

Создавать темы 08-Дек-2015 22:23

Ужастики / GoosebumpsГод выхода: 2015
Жанр: фэнтези, комедия, приключения
Режиссер: Роб Леттерман
В ролях:
Дилан Миннетт, Одейя Раш, Эми Райан, Райан Ли, Джиллиан Белл, Джек Блэк, Кен Марино, Холстон Сейдж, Стивен Крюгер, Кит А. Болден
О фильме:
Кошмары бывают разные. Вечно голодные оборотни, плохо воспитанные зомби, агрессивные садовые гномы и даже гигантский неуравновешенный снежный человек… Все эти фантастические монстры и монстрики многие годы магическим образом удерживались на страницах знаменитых бестселлеров «Ужастики», пока по воле случая их не выпустили на свободу в реальный мир.


Выпущено: США, Австралия / Columbia Pictures, LStar Capital, Original Film, Scholastic Entertainment, Sony Pictures Animation, Sony Pictures Entertainment (SPE), Village Roadshow Pictures
Продолжительность: 01:43:12
Озвучивание: Дублированное [Чистый звук]
Файл
Формат: MKV
Качество: WEBRip 720p
Видео: MPEG-4 AVC, 4648 kb/s, 1280x536
Аудио: Russian: AC3, 192 kb/s (2 ch) / English: AC3, 384 kb/s (2 ch)

MI

Format                         : Matroska
Format version                 : Version 2
File size                      : 3.69 GiB
Duration                       : 1h 43mn
Overall bit rate               : 5 116 Kbps
Encoded date                   : UTC 2015-12-08 09:40:32
Writing application            : mkvmerge v7.8.0 ('River Man') 32bit built on Apr  3 2015 12:11:22
Writing library                : libebml v1.3.1 + libmatroska v1.4.2
Video
ID                             : 1
Format                         : AVC
Format/Info                    : Advanced Video Codec
Format profile                 : [email protected]
Format settings, CABAC         : No
Format settings, ReFrames      : 5 frames
Codec ID                       : V_MPEG4/ISO/AVC
Duration                       : 1h 43mn
Bit rate                       : 4 648 Kbps
Width                          : 1 280 pixels
Height                         : 536 pixels
Display aspect ratio           : 2.40:1
Frame rate mode                : Constant
Frame rate                     : 30.000 fps
Standard                       : Component
Color space                    : YUV
Chroma subsampling             : 4:2:0
Bit depth                      : 8 bits
Scan type                      : Progressive
Bits/(Pixel*Frame)             : 0.226
Stream size                    : 3.20 GiB (87%)
Writing library                : x264 core 148 r2538
Encoding settings              : cabac=0 / ref=5 / deblock=1:-3:-3 / analyse=0x3:0x133 / me=esa / subme=7 / psy=1 / psy_rd=1.00:0.00 / mixed_ref=1 / me_range=24 / chroma_me=1 / trellis=2 / 8x8dct=1 / cqm=0 / deadzone=21,11 / fast_pskip=1 / chroma_qp_offset=-2 / threads=12 / lookahead_threads=2 / sliced_threads=0 / nr=0 / decimate=1 / interlaced=0 / bluray_compat=0 / constrained_intra=0 / bframes=3 / b_pyramid=0 / b_adapt=2 / b_bias=0 / direct=1 / weightb=1 / open_gop=0 / weightp=2 / keyint=300 / keyint_min=30 / scenecut=40 / intra_refresh=0 / rc_lookahead=40 / rc=abr / mbtree=1 / bitrate=4648 / ratetol=1.0 / qcomp=0.60 / qpmin=10 / qpmax=69 / qpstep=4 / vbv_maxrate=50000 / vbv_bufsize=50000 / nal_hrd=none / filler=0 / ip_ratio=1.40 / aq=3:1.00
Language                       : English
Default                        : Yes
Forced                         : No
Color range                    : Limited
Color primaries                : BT.709
Transfer characteristics       : BT.709
Matrix coefficients            : BT.709
Audio #1
ID                             : 2
Format                         : AC-3
Format/Info                    : Audio Coding 3
Mode extension                 : CM (complete main)
Format settings, Endianness    : Big
Codec ID                       : A_AC3
Duration                       : 1h 43mn
Bit rate mode                  : Constant
Bit rate                       : 192 Kbps
Channel(s)                     : 2 channels
Channel positions              : Front: L R
Sampling rate                  : 48.0 KHz
Bit depth                      : 16 bits
Compression mode               : Lossy
Delay relative to video        : -38ms
Stream size                    : 142 MiB (4%)
Language                       : Russian
Default                        : Yes
Forced                         : No
Audio #2
ID                             : 3
Format                         : AC-3
Format/Info                    : Audio Coding 3
Mode extension                 : CM (complete main)
Format settings, Endianness    : Big
Codec ID                       : A_AC3
Duration                       : 1h 43mn
Bit rate mode                  : Constant
Bit rate                       : 384 Kbps
Channel(s)                     : 2 channels
Channel positions              : Front: L R
Sampling rate                  : 48.0 KHz
Bit depth                      : 16 bits
Compression mode               : Lossy
Stream size                    : 283 MiB (8%)
Language                       : English
Default                        : No
Forced                         : No

Скриншоты:

Яндекс.Метрика
Рейтинг@Mail.ru