Бегущий в лабиринте: Испытание огнём / Maze Runner: The Scorch Trials (Уэс Болл / Wes Ball) [2015 г., фантастика, боевик, триллер, BDRip, 1080p] Dub Sub (Eng+Rus) + Original (Eng)

 

Создавать темы 23-Ноя-2015 05:50

-Бегущий в лабиринте: Испытание огнём / Maze Runner: The Scorch Trials-- Производство: США
Студия:TSG Entertainment, Temple Hill Entertainment, Gotham Group
Год выпуска: 2015 г.
Жанр: фантастика, боевик, триллер
Продолжительность: 02:11:42Мировая премьера: 1 сентября 2015
Российская премьера: 17 сентября 2015, «Двадцатый Век Фокс СНГ»
Перевод: Профессиональный (полное дублирование)
Оригинальный аудиопоток: английскийРежиссер: Уэс Болл / Wes Ball-В ролях: Дилан О’Брайен, Ки Хонг Ли, Кая Скоделарио, Томас Сэнгстер, Декстер Дарден, Алекс Дж. Флорес, Джейкоб Лофленд, Роза Салазар, Джанкарло Эспозито, Патришия Кларксон-Описание: Лабиринт пройден, но Томасу, Терезе, Минхо и прочим глэйдерам не приходится расслабляться. Таинственное руководство ПОРОКА — секретной организации, устроившей гонки на выживание — назначает ребятам новые, смертельно опасные испытания. На сей раз их ждет переход по раскаленной пустыне и встреча с жертвами неизлечимой болезни, которые отличаются буйным нравом и непредсказуемым поведением.-
Качество видео: BDRip(1080p)
Контейнер: MKV
Видео кодек: H.264
Аудио кодек: DTS
Видео: AVC at 9500 Кбит/сек : 1920 x 800at 23.976 fps
Аудио: DTS at 768 Кбит/сек: 6 каналов, 48,0 КГц : ru
Аудио #2: DTS at 1509 Кбит/сек: 6 каналов, 48,0 КГц : en
Cубтитры: английские,русские
Формат субтитров: softsub (SRT)
Доп. информация о субтитрах: Rus (Full, комментарии Уэс Болл), Eng

Media Info

Общее
Уникальный идентификатор : 247639101783633144634961391103641716376 (0xBA4D8E6004BB3B9AB3194A052F710698)
Полное имя : E:\µTorrent\загрузки\Бегущий в лабиринте_Испытание огнём.1080p. Ton.mkv
Формат : Matroska
Версия формата : Version 4 / Version 2
Размер файла : 10,8 Гбайт
Продолжительность : 2 ч. 11 м.
Общий поток : 11,8 Мбит/сек
Название фильма : Бегущий в лабиринте: Испытание огнём. (Tonik)
Дата кодирования : UTC 2015-11-21 13:27:43
Программа кодирования : mkvmerge v7.1.0 ('Good Love') 64bit built on Jul 27 2014 13:06:55
Библиотека кодирования : libebml v1.3.0 + libmatroska v1.4.1
_STATISTICS_WRITING_APP : mkvmerge v7.1.0 ('Good Love') 64bit built on Jul 27 2014 13:06:55
_STATISTICS_WRITING_DATE_UTC : 2015-11-21 13:27:43
_STATISTICS_TAGS : BPS DURATION NUMBER_OF_FRAMES NUMBER_OF_BYTES
DURATION : 02:02:21.884000000
NUMBER_OF_FRAMES : 1418
NUMBER_OF_BYTES : 37299Видео
Идентификатор : 1
Формат : AVC
Формат/Информация : Advanced Video Codec
Профиль формата : [email protected]
/* */
Параметр CABAC формата : Да
Параметр ReFrames формата : 5 кадров
Идентификатор кодека : V_MPEG4/ISO/AVC
Продолжительность : 2 ч. 11 м.
Битрейт : 9500 Кбит/сек
Ширина : 1920 пикселей
Высота : 800 пикселей
Соотношение сторон : 2,40:1
Режим частоты кадров : Постоянный
Частота кадров : 23,976 кадра/сек
Цветовое пространство : YUV
Субдискретизация насыщенности : 4:2:0
Битовая глубина : 8 бит
Тип развёртки : Прогрессивная
Бит/(Пиксели*Кадры) : 0.258
Размер потока : 8,50 Гбайт (79%)
Библиотека кодирования : x264 core 142 r2479 dd79a61
Настройки программы : cabac=1 / ref=5 / deblock=1:0:0 / analyse=0x3:0x113 / me=umh / subme=10 / psy=1 / psy_rd=1.05:0.10 / mixed_ref=1 / me_range=48 / chroma_me=1 / trellis=2 / 8x8dct=1 / cqm=0 / deadzone=21,11 / fast_pskip=0 / chroma_qp_offset=-2 / threads=12 / lookahead_threads=2 / sliced_threads=0 / nr=0 / decimate=1 / interlaced=0 / bluray_compat=0 / constrained_intra=0 / bframes=8 / b_pyramid=2 / b_adapt=2 / b_bias=0 / direct=3 / weightb=1 / open_gop=0 / weightp=2 / keyint=250 / keyint_min=23 / scenecut=40 / intra_refresh=0 / rc=2pass / mbtree=0 / bitrate=9500 / ratetol=2.0 / qcomp=0.70 / qpmin=0 / qpmax=69 / qpstep=4 / cplxblur=20.0 / qblur=0.5 / ip_ratio=1.40 / pb_ratio=1.30 / aq=2:1.00
Язык : English
Default : Да
Forced : Нет
DURATION : 02:11:42.895000000
NUMBER_OF_FRAMES : 189480
NUMBER_OF_BYTES : 9358025204
_STATISTICS_WRITING_APP : mkvmerge v7.1.0 ('Good Love') 64bit built on Jul 27 2014 13:06:55
_STATISTICS_WRITING_DATE_UTC : 2015-11-21 13:27:43
_STATISTICS_TAGS : BPS DURATION NUMBER_OF_FRAMES NUMBER_OF_BYTESАудио #1
Идентификатор : 2
Формат : DTS
Формат/Информация : Digital Theater Systems
Режим : 16
Параметр Endianness формата : Big
Идентификатор кодека : A_DTS
Продолжительность : 2 ч. 11 м.
Вид битрейта : Постоянный
Битрейт : 768 Кбит/сек
Каналы : 6 каналов
Расположение каналов : Front: L C R, Side: L R, LFE
Частота : 48,0 КГц
Битовая глубина : 24 бит
Метод сжатия : С потерями
Размер потока : 724 Мбайт (7%)
Язык : Russian
Default : Да
Forced : НетАудио #2
Идентификатор : 3
Формат : DTS
Формат/Информация : Digital Theater Systems
Профиль формата : ES
Режим : 16
Параметр Endianness формата : Big
Идентификатор кодека : A_DTS
Продолжительность : 2 ч. 11 м.
Вид битрейта : Постоянный
Битрейт : 1509 Кбит/сек
Каналы : 6 каналов
Расположение каналов : Front: L C R, Side: L R, LFE
Частота : 48,0 КГц
Битовая глубина : 24 бит
Метод сжатия : С потерями
Размер потока : 1,39 Гбайт (13%)
Язык : English
Default : Нет
Forced : НетТекст #1
Идентификатор : 4
Формат : UTF-8
Идентификатор кодека : S_TEXT/UTF8
Идентификатор кодека/Информация : UTF-8 Plain Text
Язык : Russian
Default : Нет
Forced : НетТекст #2
Идентификатор : 5
Формат : UTF-8
Идентификатор кодека : S_TEXT/UTF8
Идентификатор кодека/Информация : UTF-8 Plain Text
Заголовок : комментарии Уэс Болл
Язык : Russian
Default : Нет
Forced : НетТекст #3
Идентификатор : 6
Формат : UTF-8
Идентификатор кодека : S_TEXT/UTF8
Идентификатор кодека/Информация : UTF-8 Plain Text
Язык : English
Default : Нет
Forced : НетМеню
00:00:00.000 : en:00:00:00.000
00:04:05.120 : en:00:04:05.120
00:05:59.818 : en:00:05:59.818
00:09:08.798 : en:00:09:08.798
00:11:55.840 : en:00:11:55.840
00:17:32.677 : en:00:17:32.677
00:23:21.191 : en:00:23:21.191
00:27:36.029 : en:00:27:36.029
00:33:10.238 : en:00:33:10.238
00:37:06.683 : en:00:37:06.683
00:41:30.988 : en:00:41:30.988
00:45:47.370 : en:00:45:47.370
00:51:57.781 : en:00:51:57.781
00:56:01.775 : en:00:56:01.775
01:00:56.319 : en:01:00:56.319
01:03:50.535 : en:01:03:50.535
01:07:29.254 : en:01:07:29.254
01:11:19.192 : en:01:11:19.192
01:15:32.820 : en:01:15:32.820
01:20:15.060 : en:01:20:15.060
01:27:47.471 : en:01:27:47.471
01:30:17.287 : en:01:30:17.287
01:34:04.013 : en:01:34:04.013
01:38:29.904 : en:01:38:29.904
01:40:52.546 : en:01:40:52.546
01:44:13.122 : en:01:44:13.122
01:51:51.872 : en:01:51:51.872
01:56:51.213 : en:01:56:51.213
02:01:02.714 : en:02:01:02.714
02:04:05.146 : en:02:04:05.146

Скриншоты

Яндекс.Метрика
Рейтинг@Mail.ru