Война полов (Кирилл Кузин) [2015 г., комедия, WEB-DLRip-AVC] Original (RUS)[iTunes]

 

Создавать темы 23-Ноя-2015 05:48

--Война полов--«Мужики! Не расслабляйтесь!»-- Производство: Россия, Группа компаний «Рим»
Год выпуска: 2015 г.
Жанр: комедия
Продолжительность: 01:26:11--Российская премьера: 22 октября 2015, «Каро-Премьер»--Режиссер: Кирилл Кузин--В ролях: Харальд Розенстрём, Александр Пальчиков, Екатерина Кузнецова, Сабина Ахмедова, Алексей Демидов, Марина Федункив, Анатолий Белый, Борис Эстрин, Артём Семакин--Описание: Что завтра на рассвете с каждым из нас случится, не знает никто. И когда ТРИ наших героя проснулись на необитаемом острове, в компании ДВУХ красивых… но не очень дружелюбных девушек… да еще без воды и еды… Вот тут они и поняли, что жизнь действительно полна сюрпризов!-- --Качество видео: WEB-DLRip-AVC
Контейнер: MKV
Видео кодек: H.264
Аудио кодек: AC3
Видео: AVC at 2381 Кбит/сек, 1024x430 at 25.000 fps
Аудио: 48 kHz, AC3 Dolby Digital, 3/2 (L,C,R,l,r) + LFE ch, ~384 kbps
Cубтитры: отсутствуют

Media Info

Общее
Уникальный идентификатор : 253123278731239861231458065746237141545 (0xBE6DC52CADD1C00EBB7A7BBB9A993229)
Полное имя : H:\Torrent2\Vojna.Polov.2015.x264.WEB-DLRip.(AVC).mkv
Формат : Matroska
Версия формата : Version 2
Размер файла : 1,67 Гбайт
Продолжительность : 1 ч. 26 м.
Общий поток : 2766 Кбит/сек
Название фильма : Война полов.2015.Rip by: ollan
Дата кодирования : UTC 2015-11-22 07:42:57
Программа кодирования : mkvmerge v5.6.0 ('Kenya Kane') built on May 27 2012 16:44:04
Библиотека кодирования : libebml v1.2.3 + libmatroska v1.3.0Видео
Идентификатор : 1
Формат : AVC
Формат/Информация : Advanced Video Codec
Профиль формата : [email protected]
/* */
Параметр CABAC формата : Да
Параметр ReFrames формата : 10 кадров
Идентификатор кодека : V_MPEG4/ISO/AVC
Продолжительность : 1 ч. 26 м.
Битрейт : 2381 Кбит/сек
Ширина : 1024 пикселя
Высота : 430 пикселей
Соотношение сторон : 2,40:1
Режим частоты кадров : Постоянный
Частота кадров : 25,000 кадров/сек
Цветовое пространство : YUV
Субдискретизация насыщенности : 4:2:0
Битовая глубина : 8 бит
Тип развёртки : Прогрессивная
Бит/(Пиксели*Кадры) : 0.216
Размер потока : 1,40 Гбайт (84%)
Библиотека кодирования : x264 core 125 r2200 999b753
Настройки программы : cabac=1 / ref=10 / deblock=1:-3:-3 / analyse=0x3:0x133 / me=umh / subme=11 / psy=1 / psy_rd=1.00:0.05 / mixed_ref=1 / me_range=32 / chroma_me=1 / trellis=2 / 8x8dct=1 / cqm=0 / deadzone=21,11 / fast_pskip=0 / chroma_qp_offset=-3 / threads=12 / lookahead_threads=2 / sliced_threads=0 / nr=0 / decimate=0 / interlaced=0 / bluray_compat=0 / constrained_intra=0 / bframes=9 / b_pyramid=2 / b_adapt=2 / b_bias=0 / direct=3 / weightb=1 / open_gop=0 / weightp=2 / keyint=250 / keyint_min=25 / scenecut=40 / intra_refresh=0 / rc=2pass / mbtree=0 / bitrate=2381 / ratetol=1.0 / qcomp=0.60 / qpmin=0 / qpmax=69 / qpstep=4 / cplxblur=20.0 / qblur=0.5 / ip_ratio=1.40 / pb_ratio=1.30 / aq=1:1.00
Язык : Russian
Default : Да
Forced : НетАудио
Идентификатор : 2
Формат : AC-3
Формат/Информация : Audio Coding 3
Расширение режима : CM (complete main)
Параметр Endianness формата : Big
Идентификатор кодека : A_AC3
Продолжительность : 1 ч. 26 м.
Вид битрейта : Постоянный
Битрейт : 384 Кбит/сек
Каналы : 6 каналов
Расположение каналов : Front: L C R, Side: L R, LFE
Частота : 48,0 КГц
Метод сжатия : С потерями
Размер потока : 237 Мбайт (14%)
Заголовок : iTunes Russia
Язык : Russian
Default : Да
Forced : НетМеню
00:00:00.000 : ru:Chapter 01
00:05:01.000 : ru:Chapter 02
00:10:30.000 : ru:Chapter 03
00:15:50.000 : ru:Chapter 04
00:21:17.000 : ru:Chapter 05
00:26:34.000 : ru:Chapter 06
00:32:25.000 : ru:Chapter 07
00:38:19.000 : ru:Chapter 08
00:43:34.000 : ru:Chapter 09
00:49:02.000 : ru:Chapter 10
00:54:04.000 : ru:Chapter 11
01:00:06.000 : ru:Chapter 12
01:05:26.000 : ru:Chapter 13
01:11:52.000 : ru:Chapter 14
01:17:40.000 : ru:Chapter 15
01:23:34.000 : ru:Chapter 16

Скриншоты

Трейлер
Яндекс.Метрика
Рейтинг@Mail.ru