Тёмный мир: Равновесие (Олег Асадулин) [2013, фэнтези, приключения, WEB-DLRip]

 

Создавать темы 21-Дек-2013 06:53

Тёмный мир: Равновесие- Жанр: фэнтези, приключения
Год выпуска: 2013
Продолжительность: 01:35:01
Режиссёр: Олег Асадулин
В ролях: Мария Пирогова, Павел Прилучный, Макар Запорожский, Евгения Брик, Александр Ратников, Владислав Абашин, Петр Семак, Алиса Хазанова, Валерий Опёнкин, Тимофей Носков
Описание: Каждый день они крадут твои силы, твои эмоции, твою любовь. Мы называем их Тени. Работа таких, как мы — доставлять их обратно в Тёмный мир. Надвигается катастрофа, и человечество может оказаться во власти тьмы
Сэмпл: http://multi-up.com/934181
Качество видео: WEB-DLRip
Формат видео: AVI
Видео: 720x304 (2.37:1), 25 fps, XviD build 50 ~1857 kbps avg, 0.34 bit/pixel
Аудио: 48 kHz, AC3 Dolby Digital, 2/0 (L,R) ch, ~192 kbps

MediaInfo

Общее
Полное имя : D:\Temn1y.M1r.Ravn0ves1e.2013.O.WEBRip.1400MB.avi
Формат : AVI
Формат/Информация : Audio Video Interleave
Размер файла : 1,37 Гбайт
Продолжительность : 1 ч. 35 м.
Общий поток : 2060 Кбит/сек
Программа кодирования : VirtualDubModRus 1.5.10.2 (build 2542/release)
Библиотека кодирования : VirtualDubMod build 2542/release
Видео
Идентификатор : 0
Формат : MPEG-4 Visual
Профиль формата : Advanced [email protected]
Параметр BVOP формата : 2
Параметр QPel формата : Нет
Параметр GMC формата : Без точки перехода
Параметр матрицы формата : Выборочная
Идентификатор кодека : XVID
Идентификатор кодека/Подсказка : XviD
Продолжительность : 1 ч. 35 м.
Битрейт : 1777 Кбит/сек
Ширина : 720 пикселей
Высота : 304 пикселя
Соотношение сторон : 2,35:1
Частота кадров : 25,000 кадров/сек
Цветовое пространство : YUV
Субдискретизация насыщенности : 4:2:0
Битовая глубина : 8 бит
Тип развёртки : Прогрессивная
Метод сжатия : С потерями
Бит/(Пиксели*Кадры) : 0.325
Размер потока : 1,18 Гбайт (86%)
Библиотека кодирования : XviD 1.2.1 (UTC 2008-12-04)
Аудио
Идентификатор : 1
Формат : AC-3
Формат/Информация : Audio Coding 3
Расширение режима : CM (complete main)
Параметр Endianness формата : Big
Идентификатор кодека : 2000
Продолжительность : 1 ч. 35 м.
Вид битрейта : Постоянный
Битрейт : 192 Кбит/сек
Каналы : 2 канала
Расположение каналов : Front: L R
Частота : 48,0 КГц
Битовая глубина : 16 бит
Метод сжатия : С потерями
Размер потока : 130 Мбайт (9%)
Выравнивание : Разделение по промежуткам

Скриншот c названием фильма

Скриншоты

Создавать темы 21-Дек-2013 09:06 (спустя 2 часа 13 минут)

Большое спасибо, не люблю отечественное кино, но первый фильм мне очень понравился, даже взял в коллекцию в качестве блюрей, посмотрим, что здесь.

Создавать темы 21-Дек-2013 09:11 (спустя 5 минут)

Борис писал(а):

5592Большое спасибо, не люблю отечественное кино, но первый фильм мне очень понравился, даже взял в коллекцию в качестве блюрей, посмотрим, что здесь.
Приятного просмотра

Создавать темы 31-Янв-2016 14:01 (спустя 2 года 1 месяц)

Топик был перенесен из форума Отечественные Новинки (HD*Rip/LQ, DVDRip) в форум Отечественные Фильмы (HD*Rip/LQ, DVDRip, SATRip, VHSRip)
T_O_M
Яндекс.Метрика
Рейтинг@Mail.ru