[ Сегодня на трекере фрилич! Идет свободное скачивание без начисления Download ]

База «Клейтон» / Basic (2003) BDRip 1080p

 

Создавать темы 15-Ноя-2015 11:28

База «Клейтон» / Basic Год выпуска: 2003
Страна: Германия, США
Жанр: боевик, триллер, драма, криминал, детектив
Продолжительность: 01:38:10
Перевод: дублированный, профессиональный многоголосый, авторский
Режиссёр: Джон МакТирнан
В ролях:
Джон Траволта, Конни Нильсен, Сэмюэл Л. Джексон, Тим Дэли, Джованни Рибизи, Брайан Ван Холт, Тэй Диггз, Дэш Майок, Кристиан де ла Фуэнте, Розелин Санчес, Гарри Конник мл., Джорджия Хауссерманн, Маргарет Траволта, Дена Джонстон, Ник Лорен, Клифф Флеминг, Стивен Майе, Джонатан Рау, Тейт Рупперт, Тимоти С. Вэстер, Крис Бирн, Кертис Рикс
Описание:
Форт «Клейтон» — последняя американская военная база на Панамском канале. Во время секретной тренировочной миссии ураган настигает в джунглях группу спецназовцев и их инструктора Нэйтана Веста. Противоречивые показания двух вернувшихся на базу солдат ещё больше запутывают дело. Для расследования обстоятельств мистического исчезновения отряда приглашают агента отдела по борьбе с наркотиками Харди. Те, кто уцелел, не могут объяснить в наркотиках ли дело или в чём-то другом. Все лгут...

Качество: BDRip 1080p
Формат: MKV
Видео: MPEG-4 AVC, 10.3 Mбит/c, 1920x800, 23,976 кадра/с
Аудио 1: русский, AC3, 192 kbps, 2 ch, 48 kHz [дублированный]
Аудио 2: русский, DTS, 1509 kbps, 7 ch, 48 kHz [профессиональный многоголосый, CP-Digital]
Аудио 3: русский, DTS, 1509 kbps, 7 ch, 48 kHz [авторский, Юрий Живов]
Внешние файлы
Аудио: русский, AC3, 384 kbps, 6 ch, 48 kHz [профессиональный многоголосый]
Аудио: русский, AC3, 448 kbps, 6 ch, 48 kHz [профессиональный многоголосый, LDV]
Аудио: русский, AC3, 448 kbps, 6 ch, 48 kHz [авторский, Леонид Володарский]
Аудио: английский, DTS, 1509 kbps, 7 ch, 48 kHz [оригинал]
Субтитры: русские
Субтитры: английские

Инфо-файл

Общее
Полное имя                               : D:VideoБаза Клейтон.1998.BDRip.1080pБаза Клейтон.1998.AVO.rus.Л.Володарский.ac3
Формат                                   : AC-3
Формат/Информация                        : Audio Coding 3
Размер файла                             : 315 Мбайт
Продолжительность                        : 1 ч. 38 м.
Режим общего битрейта                    : Постоянный
Общий поток                              : 448 Кбит/сек
Аудио
Формат                                   : AC-3
Формат/Информация                        : Audio Coding 3
Расширение режима                        : CM (complete main)
Параметр Endianness формата              : Big
Продолжительность                        : 1 ч. 38 м.
Вид битрейта                             : Постоянный
Битрейт                                  : 448 Кбит/сек
Каналы                                   : 6 каналов
Расположение каналов                     : Front: L C R, Side: L R, LFE
Частота                                  : 48,0 КГц
Метод сжатия                             : С потерями
Размер потока                            : 315 Мбайт (100%)
Общее
Уникальный идентификатор                 : 194868479118326075233878792457444936427 (0x929A4DCD6195D861A6F2BF94CA304AEB)
Полное имя                               : D:VideoБаза Клейтон.1998.BDRip.1080pБаза Клейтон.1998.BDRip.1080p.mkv
Формат                                   : Matroska
Версия формата                           : Version 4 / Version 2
Размер файла                             : 9,46 Гбайт
Продолжительность                        : 1 ч. 38 м.
Общий поток                              : 13,8 Мбит/сек
Название фильма                          : BDRip  --  STarankov
Дата кодирования                         : UTC 2015-11-14 03:37:52
Программа кодирования                    : mkvmerge v8.2.0 ('World of Adventure') 64bit
Библиотека кодирования                   : libebml v1.3.1 + libmatroska v1.4.2
DURATION                                 : 01:38:10.294000000
NUMBER_OF_FRAMES                         : 552215
NUMBER_OF_BYTES                          : 1111056684
_STATISTICS_WRITING_APP                  : mkvmerge v8.2.0 ('World of Adventure') 64bit
_STATISTICS_WRITING_DATE_UTC             : 2015-11-14 03:37:52
_STATISTICS_TAGS                         : BPS DURATION NUMBER_OF_FRAMES NUMBER_OF_BYTES
Видео
Идентификатор                            : 1
Формат                                   : AVC
Формат/Информация                        : Advanced Video Codec
Профиль формата                          : [email protected]
Параметр CABAC формата                   : Да
Параметр ReFrames формата                : 4 кадра
Идентификатор кодека                     : V_MPEG4/ISO/AVC
Продолжительность                        : 1 ч. 38 м.
Битрейт                                  : 10,3 Мбит/сек
Ширина                                   : 1920 пикселей
Высота                                   : 800 пикселей
Соотношение сторон                       : 2,40:1
Режим частоты кадров                     : Постоянный
Частота кадров                           : 23,976 кадра/сек
Цветовое пространство                    : YUV
Субдискретизация насыщенности            : 4:2:0
Битовая глубина                          : 8 бит
Тип развёртки                            : Прогрессивная
Бит/(Пиксели*Кадры)                      : 0.280
Размер потока                            : 7,07 Гбайт (75%)
Библиотека кодирования                   : x264 core 146 r2538 121396c
Настройки программы                      : cabac=1 / ref=4 / deblock=1:-1:-1 / analyse=0x3:0x113 / me=umh / subme=10 / psy=1 / psy_rd=1.00:0.15 / mixed_ref=1 / me_range=32 / chroma_me=1 / trellis=2 / 8x8dct=1 / cqm=0 / deadzone=21,11 / fast_pskip=1 / chroma_qp_offset=-3 / threads=6 / lookahead_threads=1 / sliced_threads=0 / nr=0 / decimate=1 / interlaced=0 / bluray_compat=0 / constrained_intra=0 / bframes=10 / b_pyramid=2 / b_adapt=2 / b_bias=0 / direct=1 / weightb=1 / open_gop=0 / weightp=2 / keyint=230 / keyint_min=23 / scenecut=40 / intra_refresh=0 / rc_lookahead=40 / rc=crf / mbtree=0 / crf=19.1 / qcomp=0.60 / qpmin=0 / qpmax=69 / qpstep=4 / vbv_maxrate=40000 / vbv_bufsize=50000 / crf_max=0.0 / nal_hrd=none / filler=0 / ip_ratio=1.40 / pb_ratio=1.30 / aq=1:1.00
Язык                                     : English
Default                                  : Да
Forced                                   : Нет
DURATION                                 : 01:38:10.301000000
NUMBER_OF_FRAMES                         : 141226
NUMBER_OF_BYTES                          : 7787602554
_STATISTICS_WRITING_APP                  : mkvmerge v8.2.0 ('World of Adventure') 64bit
_STATISTICS_WRITING_DATE_UTC             : 2015-11-14 03:37:52
_STATISTICS_TAGS                         : BPS DURATION NUMBER_OF_FRAMES NUMBER_OF_BYTES
Аудио #1
Идентификатор                            : 2
Формат                                   : AC-3
Формат/Информация                        : Audio Coding 3
Расширение режима                        : CM (complete main)
Параметр Endianness формата              : Big
Идентификатор кодека                     : A_AC3
Продолжительность                        : 1 ч. 38 м.
Вид битрейта                             : Постоянный
Битрейт                                  : 192 Кбит/сек
Каналы                                   : 2 канала
Расположение каналов                     : Front: L R
Частота                                  : 48,0 КГц
Метод сжатия                             : С потерями
Размер потока                            : 135 Мбайт (1%)
Заголовок                                : DUB
Язык                                     : Russian
Default                                  : Да
Forced                                   : Нет
Аудио #2
Идентификатор                            : 3
Формат                                   : DTS
Формат/Информация                        : Digital Theater Systems
Профиль формата                          : ES
Режим                                    : 16
Параметр Endianness формата              : Big
Идентификатор кодека                     : A_DTS
Продолжительность                        : 1 ч. 38 м.
Вид битрейта                             : Постоянный
Битрейт                                  : 1509 Кбит/сек
Каналы                                   : 7 каналов / 6 каналов
Расположение каналов                     : Front: L C R, Side: L R, Back: C, LFE / Front: L C R, Side: L R, LFE
Частота                                  : 48,0 КГц
Битовая глубина                          : 16 бит
Метод сжатия                             : С потерями
Размер потока                            : 1,03 Гбайт (11%)
Заголовок                                : MVO (CP-Digital)
Язык                                     : Russian
Default                                  : Нет
Forced                                   : Нет
Аудио #3
Идентификатор                            : 4
Формат                                   : DTS
Формат/Информация                        : Digital Theater Systems
Профиль формата                          : ES
Режим                                    : 16
Параметр Endianness формата              : Big
Идентификатор кодека                     : A_DTS
Продолжительность                        : 1 ч. 38 м.
Вид битрейта                             : Постоянный
Битрейт                                  : 1509 Кбит/сек
Каналы                                   : 7 каналов / 6 каналов
Расположение каналов                     : Front: L C R, Side: L R, Back: C, LFE / Front: L C R, Side: L R, LFE
Частота                                  : 48,0 КГц
Битовая глубина                          : 16 бит
Метод сжатия                             : С потерями
Размер потока                            : 1,03 Гбайт (11%)
Заголовок                                : AVO (Юрий Живов)
Язык                                     : Russian
Default                                  : Нет
Forced                                   : Нет
Общее
Полное имя                               : D:VideoБаза Клейтон.1998.BDRip.1080pБаза Клейтон.1998.eng.srt
Формат                                   : SubRip
Размер файла                             : 99,2 Кбайт
Текст
Формат                                   : SubRip
Метод сжатия                             : Без потерь
Общее
Полное имя                               : D:VideoБаза Клейтон.1998.BDRip.1080pБаза Клейтон.1998.MVO.rus.ac3
Формат                                   : AC-3
Формат/Информация                        : Audio Coding 3
Размер файла                             : 270 Мбайт
Продолжительность                        : 1 ч. 38 м.
Режим общего битрейта                    : Постоянный
Общий поток                              : 384 Кбит/сек
Аудио
Формат                                   : AC-3
Формат/Информация                        : Audio Coding 3
Расширение режима                        : CM (complete main)
Параметр Endianness формата              : Big
Продолжительность                        : 1 ч. 38 м.
Вид битрейта                             : Постоянный
Битрейт                                  : 384 Кбит/сек
Каналы                                   : 6 каналов
Расположение каналов                     : Front: L C R, Side: L R, LFE
Частота                                  : 48,0 КГц
Метод сжатия                             : С потерями
Размер потока                            : 270 Мбайт (100%)
Общее
Полное имя                               : D:VideoБаза Клейтон.1998.BDRip.1080pБаза Клейтон.1998.MVO.rus.LDV.ac3
Формат                                   : AC-3
Формат/Информация                        : Audio Coding 3
Размер файла                             : 316 Мбайт
Продолжительность                        : 1 ч. 38 м.
Режим общего битрейта                    : Постоянный
Общий поток                              : 448 Кбит/сек
Аудио
Формат                                   : AC-3
Формат/Информация                        : Audio Coding 3
Расширение режима                        : CM (complete main)
Параметр Endianness формата              : Big
Продолжительность                        : 1 ч. 38 м.
Вид битрейта                             : Постоянный
Битрейт                                  : 448 Кбит/сек
Каналы                                   : 6 каналов
Расположение каналов                     : Front: L C R, Side: L R, LFE
Частота                                  : 48,0 КГц
Метод сжатия                             : С потерями
Размер потока                            : 316 Мбайт (100%)
Общее
Полное имя                               : D:VideoБаза Клейтон.1998.BDRip.1080pБаза Клейтон.1998.Original.eng.dts
Формат                                   : DTS
Формат/Информация                        : Digital Theater Systems
Профиль формата                          : ES
Размер файла                             : 1,03 Гбайт
Продолжительность                        : 1 ч. 38 м.
Режим общего битрейта                    : Постоянный
Общий поток                              : 1509 Кбит/сек
Аудио
Формат                                   : DTS
Формат/Информация                        : Digital Theater Systems
Профиль формата                          : ES
Режим                                    : 16
Параметр Endianness формата              : Big
Продолжительность                        : 1 ч. 38 м.
Вид битрейта                             : Постоянный
Битрейт                                  : 1509 Кбит/сек
Каналы                                   : 7 каналов / 6 каналов
Расположение каналов                     : Front: L C R, Side: L R, Back: C, LFE / Front: L C R, Side: L R, LFE
Частота                                  : 48,0 КГц
Битовая глубина                          : 16 бит
Метод сжатия                             : С потерями
Размер потока                            : 1,03 Гбайт
Общее
Полное имя                               : D:VideoБаза Клейтон.1998.BDRip.1080pБаза Клейтон.1998.rus.srt
Формат                                   : SubRip
Размер файла                             : 121 Кбайт
Текст
Формат                                   : SubRip
Метод сжатия                             : Без потерь

Скриншоты:

Яндекс.Метрика
Рейтинг@Mail.ru