Робот по имени Чаппи / Chappie (2015) WEB-DLRip [H.264/2160p-LQ]

 

Создавать темы 05-Ноя-2015 07:01

- Робот по имени Чаппи / Chappie (2015) WEB-DLRip 2160p- Производство: США, Мексика
Жанр: Фантастика, Боевик, Триллер
Режиссер: Нил Бломкамп
Актеры: Шарлто Копли, Дев Патель, Ниндзя, Йоланди Фиссер, Хосе Пабло Кантильо, Хью Джекман, Сигурни Уивер, Брэндон Оре, Джонни Селема, Андерсон Купер
Описание:
Чаппи - вундеркинд. Как и любой другой ребенок, он попадает под влияние своего окружения, и только его сердце и душа помогут ему найти свой путь. Но есть одна вещь, которая делает Чаппи непохожим на всех остальных: он – первый робот, способный чувствовать и думать.

Исходник: ULTRAHDCLUB
Продолжительность: 02:00:23
Качество видео: WEB-DLRip 2160p
Перевод: 2 x Дублированный, Авторский (Д. Есарев x 2, М. Яроцкий)
Язык субтитров: Русский (Forced, iTunes), Русский (iTunes), Украинский (iTunes), Английский (iTunes)
Вид субтитров: Вшитые (отключаемые)
Видео: MPEG-4 AVC/H.264, 50 Мбит/с, 3840x1602
Aудио#1: 48 kHz, AC3, 6 ch, 640 kbps | Русский (DUB Blu-ray CEE)
Aудио#2: 48 kHz, AC3, 6 ch, 640 kbps | Русский AVO, Д.Есарев
Aудио#3: 48 kHz, AC3, 6 ch, 640 kbps | Русский AVO, Д.Есарев (нецензурный)
Aудио#4: 48 kHz, AC3, 6 ch, 640 kbps | AVO, М.Яроцкий (нецензурный)
Aудио#5: 48 kHz, AC3, 6 ch, 640 kbps | Украинский (DUB Blu-ray CEE)
Aудио#6: 48 kHz, AC3, 6 ch, 640 kbps | Английский

Mediainfo:

General
Unique ID                   : 249345771113925900173465464994015488138 (0xBB963FAB6C64428698E50E06D5C0288A)
Complete name               : G:\Робот по имени Чаппи (2015, WEB-DLRip 2160).mkv
Format                      : Matroska
Format version              : Version 4 / Version 2
File size                   : 45.3 GiB
Duration                    : 2h 0mn
Overall bit rate            : 53.8 Mbps
Encoded date                : UTC 2015-11-02 12:37:11
Writing application         : mkvmerge v8.3.0 ('Over the Horizon') 64bit
Writing library             : libebml v1.3.1 + libmatroska v1.4.2
DURATION                    : 01:52:14.819000000
NUMBER_OF_FRAMES            : 1608
NUMBER_OF_BYTES             : 50364
_STATISTICS_WRITING_APP     : mkvmerge v8.3.0 ('Over the Horizon') 64bit
_STATISTICS_WRITING_DATE_UT : 2015-11-02 12:37:11
_STATISTICS_TAGS            : BPS DURATION NUMBER_OF_FRAMES NUMBER_OF_BYTES
Video
ID                          : 1
Format                      : AVC
Format/Info                 : Advanced Video Codec
Format profile              : [url=mailto:[email protected]][email protected][/url]
Format settings, CABAC      : Yes
Format settings, ReFrames   : 7 frames
Codec ID                    : V_MPEG4/ISO/AVC
Duration                    : 2h 0mn
Bit rate                    : 50.0 Mbps
Width                       : 3 840 pixels
Height                      : 1 602 pixels
Display aspect ratio        : 2.40:1
Frame rate mode             : Constant
Frame rate                  : 23.976 fps
Color space                 : YUV
Chroma subsampling          : 4:2:0
Bit depth                   : 8 bits
Scan type                   : Progressive
Bits/(Pixel*Frame)          : 0.339
Stream size                 : 41.1 GiB (91%)
Writing library             : x264 core 148 r2638 7599210
Encoding settings           : cabac=1 / ref=7 / deblock=1:-1:-1 / analyse=0x3:0x133 / me=umh / subme=10 / psy=1 / psy_rd=1.00:0.15 / mixed_ref=1 / me_range=24 / chroma_me=1 / trellis=2 / 8x8dct=1 / cqm=0 / deadzone=21,11 / fast_pskip=1 / chroma_qp_offset=-3 / threads=24 / lookahead_threads=4 / sliced_threads=0 / nr=0 / decimate=1 / interlaced=0 / bluray_compat=0 / constrained_intra=0 / bframes=8 / b_pyramid=2 / b_adapt=2 / b_bias=0 / direct=3 / weightb=1 / open_gop=0 / weightp=2 / keyint=250 / keyint_min=23 / scenecut=40 / intra_refresh=0 / rc_lookahead=60 / rc=2pass / mbtree=1 / bitrate=50000 / ratetol=1.0 / qcomp=0.60 / qpmin=0 / qpmax=69 / qpstep=4 / cplxblur=20.0 / qblur=0.5 / vbv_maxrate=300000 / vbv_bufsize=300000 / nal_hrd=none / filler=0 / ip_ratio=1.40 / aq=2:1.00
Language                    : English
Default                     : Yes
Forced                      : Yes
Color range                 : Limited
Matrix coefficients         : BT.709
Audio #1
ID                          : 2
Format                      : AC-3
Format/Info                 : Audio Coding 3
Mode extension              : CM (complete main)
Format settings, Endianness : Big
Codec ID                    : A_AC3
Duration                    : 2h 0mn
Bit rate mode               : Constant
Bit rate                    : 640 Kbps
Channel(s)                  : 6 channels
Channel positions           : Front: L C R, Side: L R, LFE
Sampling rate               : 48.0 KHz
Compression mode            : Lossy
Delay relative to video     : 1s 300ms
Stream size                 : 551 MiB (1%)
Title                       : AC3 5.1 @ 640 kbps - DUB, Blu-ray CEE
Language                    : Russian
Default                     : Yes
Forced                      : No
Audio #2
ID                          : 3
Format                      : AC-3
Format/Info                 : Audio Coding 3
Mode extension              : CM (complete main)
Format settings, Endianness : Big
Codec ID                    : A_AC3
Duration                    : 2h 0mn
Bit rate mode               : Constant
Bit rate                    : 640 Kbps
Channel(s)                  : 6 channels
Channel positions           : Front: L C R, Side: L R, LFE
Sampling rate               : 48.0 KHz
Compression mode            : Lossy
Stream size                 : 551 MiB (1%)
Title                       : AC3 5.1 @ 640 kbps - AVO, D.Esarev (cens)
Language                    : Russian
Default                     : No
Forced                      : No
Audio #3
ID                          : 4
Format                      : AC-3
Format/Info                 : Audio Coding 3
Mode extension              : CM (complete main)
Format settings, Endianness : Big
Codec ID                    : A_AC3
Duration                    : 2h 0mn
Bit rate mode               : Constant
Bit rate                    : 640 Kbps
Channel(s)                  : 6 channels
Channel positions           : Front: L C R, Side: L R, LFE
Sampling rate               : 48.0 KHz
Compression mode            : Lossy
Stream size                 : 551 MiB (1%)
Title                       : AC3 5.1 @ 640 kbps - AVO, D.Esarev (uncens)
Language                    : Russian
Default                     : No
Forced                      : No
Audio #4
ID                          : 5
Format                      : AC-3
Format/Info                 : Audio Coding 3
Mode extension              : CM (complete main)
Format settings, Endianness : Big
Codec ID                    : A_AC3
Duration                    : 2h 0mn
Bit rate mode               : Constant
Bit rate                    : 640 Kbps
Channel(s)                  : 6 channels
Channel positions           : Front: L C R, Side: L R, LFE
Sampling rate               : 48.0 KHz
Compression mode            : Lossy
Stream size                 : 551 MiB (1%)
Title                       : AC3 5.1 @ 640 kbps - AVO, M.Yarotskiy
Language                    : Russian
Default                     : No
Forced                      : No
Audio #5
ID                          : 6
Format                      : AC-3
Format/Info                 : Audio Coding 3
Mode extension              : CM (complete main)
Format settings, Endianness : Big
Codec ID                    : A_AC3
Duration                    : 2h 0mn
Bit rate mode               : Constant
Bit rate                    : 640 Kbps
Channel(s)                  : 6 channels
Channel positions           : Front: L C R, Side: L R, LFE
Sampling rate               : 48.0 KHz
Compression mode            : Lossy
Delay relative to video     : 1s 300ms
Stream size                 : 551 MiB (1%)
Title                       : AC3 5.1 @ 640 kbps - DUB, Blu-ray CEE
Language                    : Ukrainian
Default                     : No
Forced                      : No
Audio #6
ID                          : 7
Format                      : AC-3
Format/Info                 : Audio Coding 3
Mode extension              : CM (complete main)
Format settings, Endianness : Big
Codec ID                    : A_AC3
Duration                    : 2h 0mn
Bit rate mode               : Constant
Bit rate                    : 640 Kbps
Channel(s)                  : 6 channels
Channel positions           : Front: L C R, Side: L R, LFE
Sampling rate               : 48.0 KHz
Compression mode            : Lossy
Stream size                 : 551 MiB (1%)
Title                       : AC3 5.1 @ 640 kbps - Blu-ray CEE
Language                    : English
Default                     : No
Forced                      : No
Text #1
ID                          : 8
Format                      : UTF-8
Codec ID                    : S_TEXT/UTF8
Codec ID/Info               : UTF-8 Plain Text
Title                       : Forced, iTunes
Language                    : Russian
Default                     : Yes
Forced                      : Yes
Text #2
ID                          : 9
Format                      : UTF-8
Codec ID                    : S_TEXT/UTF8
Codec ID/Info               : UTF-8 Plain Text
Title                       : iTunes
Language                    : Russian
Default                     : No
Forced                      : No
Text #3
ID                          : 10
Format                      : UTF-8
Codec ID                    : S_TEXT/UTF8
Codec ID/Info               : UTF-8 Plain Text
Title                       : iTunes
Language                    : Ukrainian
Default                     : No
Forced                      : No
Text #4
ID                          : 11
Format                      : UTF-8
Codec ID                    : S_TEXT/UTF8
Codec ID/Info               : UTF-8 Plain Text
Title                       : iTunes
Language                    : English
Default                     : No
Forced                      : No
Menu
00:00:00.000                : en:1
00:03:37.000                : en:2
00:09:55.000                : en:3
00:13:50.000                : en:4
00:21:53.000                : en:5
00:31:16.000                : en:6
00:37:18.000                : en:7
00:46:56.000                : en:8
00:54:34.000                : en:9
01:06:09.000                : en:10
01:09:54.000                : en:11
01:16:44.000                : en:12
01:24:55.000                : en:13
01:31:30.000                : en:14
01:42:31.000                : en:15
01:49:58.000                : en:16

Знаете ли вы, что...

• В фильме снялась южноафриканская рэп-рейв группа Die Antwoord, участники которой являются поклонниками работ Нила Бломкампа. У Ниндзя даже есть татуировка "D 9" на внутренней стороне губы в честь его фильма "Район №9" (2009).
• На создание антенны в виде уха кролика Нила Бломкампа вдохновил Бриарей – персонаж манги Мусамунэ Сиро «Яблочное зёрнышко» (Appleseed), поклонником которой является Бломкамп.
• Съемки фильма начались в последних числах октября 2013 года в самом крупном городе ЮАР – Йоханнесбурге, и завершились в феврале 2014 года.
• В основу фильма легла короткометражка Нила Бломкампа "Тетра Ваал" (2004).
• В конце фильма Чаппи соединяется с сервером 162.244.164.51 для изготовления своей мамы. В реальной жизни это адрес сервера хостинговой компании SoftLayer Technologies, Inc. (IBM), позиционирующей себя как самая большая облачная сетевая структура в мире.

Ошибки в фильме

• В фильме показана гипотетическая технология загрузки сознания. Однако допущена ошибка: шлем считывающий нейронную активность человеческого мозга не смог бы считать активность мозга Чаппи.
Скриншоты:
Яндекс.Метрика
Рейтинг@Mail.ru