Ярость / Fury (Дэвид Эйр / David Ayer) [2014, США, Китай, Великобритания, Боевик, драма, военный, WEBRip 2160p] Dub (Blu-ray EUR) + AVO (А. Матвеев) + AVO (А. Гаврилов) + Dub (Ukr, Blu-ray EUR) + Original Eng + Sub Rus, Ukr, Eng

 

Создавать темы 02-Ноя-2015 11:02

--Ярость / Fury-- Страна: США, Китай, Великобритания
Студия: Columbia Pictures, Crave Films, LStar Capital
Жанр: Боевик, драма, военный
Год выпуска: 2014
Продолжительность: 02:14:38
Перевод: Профессиональный (дублированный) Blu-ray EUR
Перевод 2: Авторский (одноголосый закадровый) А. Матвеев
Перевод 3: Авторский (одноголосый закадровый) А. Гаврилов
Перевод 4: Профессиональный (дублированный) Blu-ray EUR, украинский
Cубтитры: русские (форсированные, полные), украинские (форсированные), английские (форсированные, полные)
Оригинальная аудиодорожка: английский
Режиссер: Дэвид Эйр / David Ayer
В ролях: Брэд Питт, Логан Лерман, Шайа ЛаБаф, Майкл Пенья, Джон Бернтал, Джейсон Айзекс, Джим Пэррак, Брэд Уильям Хенке, Кевин Вэнс, Завьер Сэмюэл, Анамария Маринка, Алисия фон Риттберг, Скотт Иствуд
Описание: Стоит апрель 1945 года, и победа над немцами уже близка: союзники уверенно продвигаются вглубь вражеской территории, и оказываемое им сопротивление становится слабее день ото дня. Это, однако, совсем не значит, что на пути к победе союзные войска не потеряют еще множество людей, и многие солдаты сознают, что смерть ждет на расстоянии вытянутой руки. Среди закаленных в бою пессимистов, каждый день ведущих ожесточенные бои во имя победы, экипаж танка, на чьем дуле намалевано слово «Ярость»
Дополнительное описание:

Сэмпл: https://yadi.sk/i/W7S0Y7ipk9XkM
Тип релиза: WEBRip 2160p
Контейнер: MKV
Видео: 3840x1606 (2:40:1), 23,976 fps, 50 Mbps, 0.338 bits/(pixel*frame)
Аудио: 48 kHz, AC3 Dolby Digital, 3/2 (L,C,R,l,r) + LFE ch, ~640.00 kbps avg | Русский, (DUB Blu-ray EUR)
Аудио 2: 48 kHz, AC3 Dolby Digital, 3/2 (L,C,R,l,r) + LFE ch, ~640.00 kbps avg | AVO, А. Матвеев
Аудио 3: 48 kHz, AC3 Dolby Digital, 3/2 (L,C,R,l,r) + LFE ch, ~640.00 kbps avg | AVO, А. Гаврилов
Аудио 4: 48 kHz, AC3 Dolby Digital, 3/2 (L,C,R,l,r) + LFE ch, ~640.00 kbps avg | Украинский, (DUB Blu-ray EUR)
Аудио 5: 48 kHz, AC3 Dolby Digital, 3/2 (L,C,R,l,r) + LFE ch, ~640.00 kbps avg | Английский
Формат субтитров: softsub (SRT)

MediaInfo

General
Unique ID : 248680132136204479206159805226391771307 (0xBB160D225BF17BD5A81CEC5E842D18AB)
Complete name : \\SERVER\Videos\Фильмы\Боевики\Ярость (2014, WEBRip 2160).mkv
Format : Matroska
Format version : Version 4 / Version 2
File size : 50.0 GiB
Duration : 2h 14mn
Overall bit rate : 53.2 Mbps
Encoded date : UTC 2015-10-31 16:09:25
Writing application : mkvmerge v8.2.0 ('World of Adventure') 64bit
Writing library : libebml v1.3.1 + libmatroska v1.4.2
DURATION : 02:03:52.474000000
NUMBER_OF_FRAMES : 1469
NUMBER_OF_BYTES : 42729
_STATISTICS_WRITING_APP : mkvmerge v8.2.0 ('World of Adventure') 64bit
_STATISTICS_WRITING_DATE_UT : 2015-10-31 16:09:25
_STATISTICS_TAGS : BPS DURATION NUMBER_OF_FRAMES NUMBER_OF_BYTES
Video
ID : 1
Format : AVC
Format/Info : Advanced Video Codec
Format profile : [email protected]
Format settings, CABAC : Yes
Format settings, ReFrames : 7 frames
Codec ID : V_MPEG4/ISO/AVC
Duration : 2h 14mn
Bit rate : 50.0 Mbps
Width : 3 840 pixels
Height : 1 606 pixels
Display aspect ratio : 2.40:1
Frame rate mode : Constant
Frame rate : 23.976 fps
Color space : YUV
Chroma subsampling : 4:2:0
Bit depth : 8 bits
Scan type : Progressive
Bits/(Pixel*Frame) : 0.338
Stream size : 46.0 GiB (92%)
Writing library : x264 core 148 r2638 7599210
Encoding settings : cabac=1 / ref=7 / deblock=1:-1:-1 / analyse=0x3:0x133 / me=umh / subme=10 / psy=1 / psy_rd=1.00:0.15 / mixed_ref=1 / me_range=24 / chroma_me=1 / trellis=2 / 8x8dct=1 / cqm=0 / deadzone=21,11 / fast_pskip=1 / chroma_qp_offset=-3 / threads=12 / lookahead_threads=2 / sliced_threads=0 / nr=0 / decimate=1 / interlaced=0 / bluray_compat=0 / constrained_intra=0 / bframes=8 / b_pyramid=2 / b_adapt=2 / b_bias=0 / direct=3 / weightb=1 / open_gop=0 / weightp=2 / keyint=250 / keyint_min=23 / scenecut=40 / intra_refresh=0 / rc_lookahead=60 / rc=2pass / mbtree=1 / bitrate=50000 / ratetol=1.0 / qcomp=0.60 / qpmin=0 / qpmax=69 / qpstep=4 / cplxblur=20.0 / qblur=0.5 / vbv_maxrate=300000 / vbv_bufsize=300000 / nal_hrd=none / filler=0 / ip_ratio=1.40 / aq=2:1.00
Default : Yes
Forced : No
Color range : Limited
Matrix coefficients : BT.709
Audio #1
ID : 2
Format : AC-3
Format/Info : Audio Coding 3
Mode extension : CM (complete main)
Format settings, Endianness : Big
Codec ID : A_AC3
Duration : 2h 14mn
Bit rate mode : Constant
Bit rate : 640 Kbps
Channel(s) : 6 channels
Channel positions : Front: L C R, Side: L R, LFE
Sampling rate : 48.0 KHz
Compression mode : Lossy
Delay relative to video : 24ms
Stream size : 616 MiB (1%)
Title : AC3 5.1 @ 640 kbps - DUB, Blu-ray EUR
Language : Russian
Default : Yes
Forced : No
Audio #2
ID : 3
Format : AC-3
Format/Info : Audio Coding 3
Mode extension : CM (complete main)
Format settings, Endianness : Big
Codec ID : A_AC3
Duration : 2h 14mn
Bit rate mode : Constant
Bit rate : 640 Kbps
Channel(s) : 6 channels
Channel positions : Front: L C R, Side: L R, LFE
Sampling rate : 48.0 KHz
Compression mode : Lossy
Stream size : 616 MiB (1%)
Title : AC3 5.1 @ 640 kbps - AVO, A.Matveev
Language : Russian
Default : No
Forced : No
Audio #3
ID : 4
Format : AC-3
Format/Info : Audio Coding 3
Mode extension : CM (complete main)
Format settings, Endianness : Big
Codec ID : A_AC3
Duration : 2h 14mn
Bit rate mode : Constant
Bit rate : 640 Kbps
Channel(s) : 6 channels
Channel positions : Front: L C R, Side: L R, LFE
Sampling rate : 48.0 KHz
Compression mode : Lossy
Stream size : 616 MiB (1%)
Title : AC3 5.1 @ 640 kbps - AVO, A.Gavrilov
Language : Russian
Default : No
Forced : No
Audio #4
ID : 5
Format : AC-3
Format/Info : Audio Coding 3
Mode extension : CM (complete main)
Format settings, Endianness : Big
Codec ID : A_AC3
Duration : 2h 14mn
Bit rate mode : Constant
Bit rate : 640 Kbps
Channel(s) : 6 channels
Channel positions : Front: L C R, Side: L R, LFE
Sampling rate : 48.0 KHz
Compression mode : Lossy
Delay relative to video : 24ms
Stream size : 616 MiB (1%)
Title : AC3 5.1 @ 640 kbps - DUB, Blu-ray EUR
Language : Ukrainian
Default : No
Forced : No
Audio #5
ID : 6
Format : AC-3
Format/Info : Audio Coding 3
Mode extension : CM (complete main)
Format settings, Endianness : Big
Codec ID : A_AC3
Duration : 2h 14mn
Bit rate mode : Constant
Bit rate : 640 Kbps
Channel(s) : 6 channels
Channel positions : Front: L C R, Side: L R, LFE
Sampling rate : 48.0 KHz
Compression mode : Lossy
Stream size : 616 MiB (1%)
Title : AC3 5.1 @ 640 kbps
Language : English
Default : No
Forced : No
Text #1
ID : 7
Format : UTF-8
Codec ID : S_TEXT/UTF8
Codec ID/Info : UTF-8 Plain Text
Title : Forced
Language : Russian
Default : Yes
Forced : Yes
Text #2
ID : 8
Format : UTF-8
Codec ID : S_TEXT/UTF8
Codec ID/Info : UTF-8 Plain Text
Title : Blu-ray EUR
Language : Russian
Default : No
Forced : No
Text #3
ID : 9
Format : UTF-8
Codec ID : S_TEXT/UTF8
Codec ID/Info : UTF-8 Plain Text
Title : Forced
Language : Ukrainian
Default : No
Forced : No
Text #4
ID : 10
Format : UTF-8
Codec ID : S_TEXT/UTF8
Codec ID/Info : UTF-8 Plain Text
Title : Forced
Language : English
Default : No
Forced : No
Text #5
ID : 11
Format : UTF-8
Codec ID : S_TEXT/UTF8
Codec ID/Info : UTF-8 Plain Text
Language : English
Default : No
Forced : No
Menu #1
00:00:00.000 : en:00:00:00.000
00:07:58.226 : en:00:07:58.226
00:20:24.681 : en:00:20:24.681
00:26:38.930 : en:00:26:38.930
00:37:26.034 : en:00:37:26.034
00:43:24.059 : en:00:43:24.059
00:51:59.407 : en:00:51:59.407
01:01:20.300 : en:01:01:20.300
01:13:46.546 : en:01:13:46.546
01:18:29.703 : en:01:18:29.703
01:26:21.801 : en:01:26:21.801
01:29:50.426 : en:01:29:50.426
01:35:39.190 : en:01:35:39.190
01:48:12.109 : en:01:48:12.109
01:57:49.979 : en:01:57:49.979
02:00:41.609 : en:02:00:41.609
Menu #2
00:00:00.000 : en:1.
00:07:58.228 : en:2.
00:20:24.682 : en:3.
00:26:38.931 : en:4.
00:37:26.035 : en:5.
00:43:24.060 : en:6.
00:51:59.408 : en:7.
01:01:20.302 : en:8.
01:13:46.547 : en:9.
01:18:29.705 : en:10.
01:26:21.802 : en:11.
01:29:50.427 : en:12.
01:35:39.192 : en:13.
01:48:12.111 : en:14.
01:57:49.980 : en:15.
02:00:41.609 : en:16.

Знаете ли вы, что...

• В фильме использовались две марки сигарет — Lucky Strike и Camel. Если кому-то требовалось курить в кадре, актеры могли выбрать либо травяные сигареты, либо настоящие без фильтра. Травяные сигареты не содержат вредных химических веществ, но они полностью сгорают примерно за 1 минуту. Сигара же, которую курит доктор пехотного батальона во время операции, является подлинной кубинской сигарой, как и все остальные сигары в фильме.
• Белорусская компания Wargaming приняла участие в продвижении фильма. Первое видео фильма показали на стенде «World of Tanks» на E3 2014.
• Шайа ЛаБаф спилил себе один из зубов для съёмок в фильме и не мылся долгое время, чем злил съёмочную группу и актёров.
• Основные танки Шерман, которые использовались в фильме, были:
M4A2 76мм HVSS из Бовингтонского танкового музея,
M4A2 75мм VVSS от Tay Restorations,
M4A2 76мм HVSS от Jeep Sud Est,
M4A4 75MM VVSS от Adrian Barrell,
M4A1 76mm VVSS от Barratt Homes.
• Штурмовая винтовка, которую носит персонаж Брэда Питта, — это немецкая StG 44, также известная как Sturmgewehr 44.
• По сценарию герой Скотта Иствуда (сержант Майлз) должен жевать жевательный табак и сплёвывать его сидя на танке (это видно в эпизоде перед сражением с противотанковыми немецкими орудиями). Шайа ЛаБаф и Брэд Питт увидев это чуть не подрались со Скоттом, в результате пришлось вмешаться режиссеру. Когда они поняли, что это необходимо по сценарию они успокоились. Причиной этой реакции стало то, что Шайа ЛаБаф и Брэд Питт фактически жили в этом танке во время съемок фильма и относились к нему, как к дому подобно настоящим танкистам.

Ошибки в фильме

• В конце фильма в танк с мертвым экипажем забрасывают 2 гранаты, но после взрыва с их телами ничего не происходит.
• В нескольких сценах фильма, когда танки Шерман оказываются подбиты, то их башня отлетает от основного шасси. Этот эффект известен под названием «Попрыгунчик» (jack-in-the-box). Он вызывается большим давлением внутри танка (например, от взрыва боеприпасов внутри него). Такое происходит только в том случае, если все люки танка герметично закрыты. Когда же этот эффект показывается в фильме, то видно, что у танков открыты люки, а значит им не могло оторвать башню.
• Когда заканчивается первый бой первой миссии, Уордэдди проходит мимо танков по направлению к группе, в этом моменте можно заметить ярко-красный огнетушитель рядом с одним из танков.
• В одной сцене внутри танка Бойд Суон курит сигареты марки Natural American Spirit. Такие сигареты появились только в 1982-м году, и в 1945-м их быть не могло.
• Когда немецкие войска маршируют в сторону перекрестка, слышно, что они поют, и Норман подтверждает это позже. Но в момент, когда слышно их пение, губы у всех немецких солдат неподвижны.
• В финальной сцене сражения действие начинается в дневное время, но затем буквально за несколько минут день превращается в ночь.
• Через секунду после того, как Грейди выливает содержимое стакана на голову Нормана, его лицо и волосы абсолютно сухие.
• Когда Норман садится в машину скорой помощи, ее окна практически полностью забиты пылью и грязью. Но при этом, когда камера показывает машину снаружи, его очень хорошо видно через эти окна.
• В заключительной сцене танк усыпан сотнями гильз. По идее это должны быть пустые гильзы, а на самом деле видно, что это боевые патроны.
• Нашивка 2-ой бронетанковой дивизии, «Ад на колесах» (Hell on Wheels), никогда не носилась на плече. Она всегда располагалась на передней части формы, над сердцем.
• Когда Норман уходит в разведку и видит марширующих немцев, то отчётливо видно, что у каждого третьего из них на плече Панцерфауст (противотанковое оружие). Но когда начинается бой, немцы начинают брать Панцерфаусты из ящиков, которые откуда-то приносят.
• Во время финальной битвы Норман спасается путем побега из танка через люк в полу. Далее он зарывается в грязь, но на утро, когда его находят американские солдаты, вся его одежда абсолютно чистая.
• В одной сцене на место сражения доставляется деревянная коробка с четырьмя Панцерфаустами (противотанковое оружие). Из одной стреляют и промахиваются, затем вторым наносят серьезные повреждения танку, после чего из них перестают стрелять. Элитные, опытные солдаты СС, вместо того, чтобы воспользоваться оставшимися гранатометами, продолжают бесполезный шквал из винтовок по бронированному танку.
• Когда в начале фильма Дон убивает немца, он наносит несколько ударов ножом в грудь, в следующее мгновение он вынимает нож уже из лица немца.
• Во время первого серьёзного боя, когда американцы с танками захватывали немецкие позиции, для корректировки огня танков командир направляет выстрелы на 8 и 6 часов, но эти направления означают, что дулу танка надо стрелять назад, а двигались и стреляли они прямо.
• Перед финальной битвой на танк положили труп немецкого солдата. Чуть позже крупным планом отчётливо видно, что это манекен.

Скриншот c названием фильма

Скриншоты:

Яндекс.Метрика
Рейтинг@Mail.ru