[ Сегодня на трекере фрилич! Идет свободное скачивание без начисления Download ]

Бумажные города / Paper Towns (2015) BDRip 1080p | iTunes

 

Создавать темы 28-Окт-2015 21:42

Бумажные города / Paper Towns Страна: США
Студия: Fox 2000 Pictures, Temple Hill Entertainment
Жанр: драма, мелодрама, детектив
Год выпуска: 2015
Продолжительность: 01:49:05
Перевод: Профессиональный (дублированный) iTunes
Cубтитры: Rus, Eng
Оригинальная аудиодорожка: английский
Режиссер: Джейк Шрейер / Jake Schreier
В ролях: Нат Вулф, Кара Делевинь, Остин Абрамс, Джастис Смит, Холстон Сейдж, Жасмин Сабино, Кара Буоно, Джозиа Серио, Мэг Кросби, Кэйтлин Карвер
Описание: Выпускник школы Кью Джейкобсен с детских лет тайно влюблен в свою прекрасную и дерзкую соседку Марго Рот Шпигельманн. Поэтому, когда однажды ночью она приглашает его принять участие в «карательной операции» против ее обидчиков, он соглашается. Но, придя в школу после их ночного приключения, Кью узнает, что Марго исчезла… оставив для него лишь таинственные послания, которые он должен разгадать, чтобы найти девушку.

Тип релиза: BDRip 1080p
Контейнер: MKV
Видео: MPEG-4 AVC, 8634 Кбит/с, 1920x800, 23,976 fps
Аудио: Rus, AC3, 384 kb/s (6 ch), 48 kHz
Аудио 2: Eng, DTS, 1510 kb/s (6 ch), 48 kHz
Формат субтитров: softsub (SRT)

MediaInfo

Format                         : Matroska
Format version                 : Version 4 / Version 2
File size                      : 8.19 GiB
Duration                       : 1h 49mn
Overall bit rate               : 10.7 Mbps
Movie name                     : Бумажные города. (Tonik)
Encoded date                   : UTC 2015-10-10 05:17:00
Writing application            : mkvmerge v7.1.0 ('Good Love') 64bit built on Jul 27 2014 13:06:55
Writing library                : libebml v1.3.0 + libmatroska v1.4.1
_STATISTICS_WRITING_APP        : mkvmerge v7.1.0 ('Good Love') 64bit built on Jul 27 2014 13:06:55
_STATISTICS_WRITING_DATE_UTC   : 2015-10-10 05:17:00
_STATISTICS_TAGS               : BPS DURATION NUMBER_OF_FRAMES NUMBER_OF_BYTES
DURATION                       : 01:49:05.581000000
NUMBER_OF_FRAMES               : 156937
NUMBER_OF_BYTES                : 7238708362
Video
ID                             : 1
Format                         : AVC
Format/Info                    : Advanced Video Codec
Format profile                 : [email protected]
Format settings, CABAC         : Yes
Format settings, ReFrames      : 4 frames
Codec ID                       : V_MPEG4/ISO/AVC
Duration                       : 1h 49mn
Bit rate                       : 8 634 Kbps
Width                          : 1 920 pixels
Height                         : 800 pixels
Display aspect ratio           : 2.40:1
Frame rate mode                : Constant
Frame rate                     : 23.976 fps
Color space                    : YUV
Chroma subsampling             : 4:2:0
Bit depth                      : 8 bits
Scan type                      : Progressive
Bits/(Pixel*Frame)             : 0.234
Stream size                    : 6.58 GiB (80%)
Writing library                : x264 core 146 r2538 121396c
Encoding settings              : cabac=1 / ref=4 / deblock=1:-3:-3 / analyse=0x3:0x113 / me=umh / subme=10 / psy=1 / psy_rd=1.00:0.00 / mixed_ref=1 / me_range=24 / chroma_me=1 / trellis=2 / 8x8dct=1 / cqm=0 / deadzone=21,11 / fast_pskip=1 / chroma_qp_offset=-2 / threads=6 / lookahead_threads=1 / sliced_threads=0 / nr=0 / decimate=1 / interlaced=0 / bluray_compat=0 / constrained_intra=0 / bframes=8 / b_pyramid=2 / b_adapt=2 / b_bias=0 / direct=1 / weightb=1 / open_gop=0 / weightp=2 / keyint=250 / keyint_min=25 / scenecut=40 / intra_refresh=0 / rc_lookahead=60 / rc=crf / mbtree=0 / crf=15.0 / qcomp=0.60 / qpmin=0 / qpmax=69 / qpstep=4 / vbv_maxrate=62500 / vbv_bufsize=78125 / crf_max=0.0 / nal_hrd=none / filler=0 / ip_ratio=1.40 / pb_ratio=1.30 / aq=1:0.80
Language                       : English
Default                        : Yes
Forced                         : No
Audio #1
ID                             : 2
Format                         : AC-3
Format/Info                    : Audio Coding 3
Mode extension                 : CM (complete main)
Format settings, Endianness    : Big
Codec ID                       : A_AC3
Duration                       : 1h 49mn
Bit rate mode                  : Constant
Bit rate                       : 384 Kbps
Channel(s)                     : 6 channels
Channel positions              : Front: L C R, Side: L R, LFE
Sampling rate                  : 48.0 KHz
Bit depth                      : 16 bits
Compression mode               : Lossy
Stream size                    : 300 MiB (4%)
Title                          : iTunes
Language                       : Russian
Default                        : Yes
Forced                         : No
Audio #2
ID                             : 3
Format                         : DTS
Format/Info                    : Digital Theater Systems
Mode                           : 16
Format settings, Endianness    : Big
Codec ID                       : A_DTS
Duration                       : 1h 49mn
Bit rate mode                  : Constant
Bit rate                       : 1 509 Kbps
Channel(s)                     : 6 channels
Channel positions              : Front: L C R, Side: L R, LFE
Sampling rate                  : 48.0 KHz
Bit depth                      : 24 bits
Compression mode               : Lossy
Stream size                    : 1.15 GiB (14%)
Language                       : English
Default                        : No
Forced                         : No
Text #1
ID                             : 4
Format                         : UTF-8
Codec ID                       : S_TEXT/UTF8
Codec ID/Info                  : UTF-8 Plain Text
Title                          : Forced
Language                       : Russian
Default                        : Yes
Forced                         : No
Text #2
ID                             : 5
Format                         : UTF-8
Codec ID                       : S_TEXT/UTF8
Codec ID/Info                  : UTF-8 Plain Text
Language                       : Russian
Default                        : No
Forced                         : No
Text #3
ID                             : 6
Format                         : UTF-8
Codec ID                       : S_TEXT/UTF8
Codec ID/Info                  : UTF-8 Plain Text
Title                          : SDH
Language                       : English
Default                        : No
Forced                         : No
Menu
00:00:00.000                   : en:Chapter 01
00:03:59.239                   : en:Chapter 03
00:06:03.196                   : en:Chapter 05
00:09:06.629                   : en:Chapter 07
00:11:11.379                   : en:Chapter 09
00:13:35.064                   : en:Chapter 11
00:18:08.212                   : en:Chapter 13
00:22:26.011                   : en:Chapter 15
00:27:34.527                   : en:Chapter 17
00:31:18.209                   : en:Chapter 19
00:33:18.746                   : en:Chapter 21
00:37:51.310                   : en:Chapter 23
00:40:43.983                   : en:Chapter 25
00:43:56.550                   : en:Chapter 27
00:48:08.802                   : en:Chapter 29
00:50:20.100                   : en:Chapter 31
00:54:39.192                   : en:Chapter 33
00:59:02.705                   : en:Chapter 35
01:02:55.021                   : en:Chapter 37
01:06:57.930                   : en:Chapter 39
01:13:01.085                   : en:Chapter 41
01:16:49.479                   : en:Chapter 43
01:21:41.521                   : en:Chapter 45
01:26:22.093                   : en:Chapter 47
01:33:31.147                   : en:Chapter 49
01:36:36.499                   : en:Chapter 51
01:39:32.967                   : en:Chapter 53
01:42:31.395                   : en:Chapter 55
01:49:05.288                   : en:Chapter 57

Скриншоты:

Яндекс.Метрика
Рейтинг@Mail.ru