[ Сегодня на трекере фрилич! Идет свободное скачивание без начисления Download ]

Час пик 2 / Rush Hour 2 (2001) BDRip 1080p | D, P, P2, A, L1

 

Создавать темы 28-Окт-2015 21:20

Час пик 2 / Rush Hour 2Год выпуска: 2001
Жанр: Боевик, триллер, комедия, криминал
Выпущено: США, Гонконг, New Line Cinema, Roger Birnbaum Productions, Hiett Designs of Las Vegas.
Режиссер: Бретт Рэтнер
В ролях:
Джеки Чан, Крис Такер, Джон Лоун, Цзыи Чжан, Розелин Санчес, Алан Кинг, Харрис Юлин, Кеннет Цан, Лиза ЛоЦицеро, Мей Меланкон, Мэгги Кью, Патриция Чан, Гелберт Колома, Люси Лин, Синди Лу, Уинг Сэнг Пэнг, Линг Вонг Мей, Уильям Тюен, Шоун Перетц, Одри Куок, Эрни Рейес мл., Джереми Пивен, Верена Мей, Джоэль МакКиннон Миллер, Анджела Литтл, Джулия Шульц, Сол Рубинек, Джанни Руссо, Джеймс Дж. Чанг, Майкл Чоу, Тереза Лин, Таня Ньюболд, Мэттью Бэрри, Джеймс С. Дьюк, Филип Бэйкер Холл
О фильме:
Инспектор Королевской Гонконгской полиции Ли и детектив Джеймс Картер приезжают в Гонконг, чтобы провести там отпуск. Но когда они прибывают в город, в американском посольстве взрывается бомба, которая убивает двух американских агентов, расследующих ряд фальсификаций. Гонгконгская полиция подозревает, что за взрывом стоит Рики Тэн и дает задание Ли найти преступника. Для инспектора Ли поиски Рики Тэна ещё и личное дело. Преступник был напарником отца-полицейского Ли и повинен в его смерти. Картер, раздосадованный испорченным отпуском, присоединяется к поискам Тэна. Как и в первом фильме, из Ли и Картера получается забавный полицейский дуэт, а поиски преступника заставят их поехать в Лос-Анджелес и Лас-Вегас...

Качество: BDRip (1080p)
Видео: MPEG-4 AVC, 14921 Кбит/с, 1920x800, 23.976 кадр/с
Аудио: Русский (AC3, 6 ch, 448 Кбит/с), (AC3, 6 ch, 384 Кбит/с), (AC3, 2 ch, 192 Кбит/с), (AC3, 6 ch, 640 Кбит/с), (DTS, 6 ch, 1509 Кбит/с), украинский (AC3, 2 ch, 192 Кбит/с), английский (DTS, 6 ch, 1509 Кбит/с)
Размер: 13.07 ГБ
Продолжительность: 01:30:08
Перевод: Дублированный, профессиональный многоголосый, профессиональный двухголосый, авторский, любительский одноголосый
Субтитры: Русские, эстонские, английские
Сохранены и подписаны оригинальные чаптеры как на Blu-Ray.

Звук

Аудио #1: Русский (AC3, 6 ch, 448 Кбит/с) - Дублированный
Аудио #2: Русский (AC3, 2 ch, 192 Кбит/с) - Профессиональный многоголосый (ТНТ)
Аудио #3: Русский (AC3, 6 ch, 384 Кбит/с) - Профессиональный многоголосый (LDV)
Аудио #4: Русский (AC3, 6 ch, 192 Кбит/с) - Профессиональный двухголосый (SDI Media)
Аудио #5: Русский (AC3, 2 ch, 192 Кбит/с) - Авторский одноголосый (Визгунов)
Аудио #6: Русский (AC3, 6 ch, 640 Кбит/с) - Авторский одноголосый (Гаврилов)
Аудио #7: Русский (AC3, 2 ch, 192 Кбит/с) - Любительский одноголосый (Славянин)
Аудио #8: Украинский (AC3, 2 ch, 192 Кбит/с) - Профессиональный многоголосый (NovyChannel)
Аудио #9: Украинский (AC3, 2 ch, 192 Кбит/с) - Профессиональный многоголосый (IНТЕР)
Аудио #10: Украинский (AC3, 2 ch, 192 Кбит/с) - Профессиональный многоголосый (ICTV)
Аудио #11: Русский (DTS, 6 ch, 1509 Кбит/с) - Авторский одноголосый (Гаврилов)
Аудио #12: Английский (DTS, 6 ch, 1509 Кбит/с) - Английский

x264

x264 [info]: frame I:962   Avg QP:17.85  size:269218
x264 [info]: frame P:29247 Avg QP:21.11  size:118609
x264 [info]: frame B:99430 Avg QP:22.89  size: 63911
x264 [info]: consecutive B-frames:  2.0%  3.4%  6.5% 35.7% 14.3% 19.5%  7.4% 10.0%  0.8%  0.2%  0.3%
x264 [info]: mb I  I16..4: 16.3% 55.7% 28.1%
x264 [info]: mb P  I16..4:  6.0% 26.8%  2.3%  P16..4: 21.7% 25.8%  7.2%  2.9%  0.2%    skip: 7.1%
x264 [info]: mb B  I16..4:  1.5%  5.2%  0.3%  B16..8: 38.6% 20.2%  4.2%  direct:11.4%  skip:18.6%  L0:43.6% L1:39.8% BI:16.6%
x264 [info]: 8x8 transform intra:74.6% inter:45.1%
x264 [info]: direct mvs  spatial:99.3% temporal:0.7%
x264 [info]: coded y,uvDC,uvAC intra: 77.8% 94.1% 87.2% inter: 48.4% 59.6% 40.0%
x264 [info]: i16 v,h,dc,p: 73%  9%  5% 12%
x264 [info]: i8 v,h,dc,ddl,ddr,vr,hd,vl,hu:  7%  6% 13% 10% 14% 12% 13% 12% 13%
x264 [info]: i4 v,h,dc,ddl,ddr,vr,hd,vl,hu: 11%  9% 12%  7% 12% 11% 12% 10% 15%
x264 [info]: i8c dc,h,v,p: 58% 11% 12% 18%
x264 [info]: Weighted P-Frames: Y:1.3% UV:0.6%
x264 [info]: ref P L0: 53.0%  7.4% 21.5% 10.5%  7.1%  0.5%  0.0%
x264 [info]: ref B L0: 82.5% 12.9%  3.5%  1.1%
x264 [info]: ref B L1: 94.4%  5.6%
x264 [info]: kb/s:14917.87

Инфо-файл

Общее
Уникальный идентификатор                 : 245064577683937467790614864037691272991 (0xB85DB8896E006E46B958ABFCD5382F1F)
Полное имя                               : D:ЗагрузкиRIPRush.Hour.II.2001.x264.BDRip.(1080p).ExKinoRay.mkv
Формат                                   : Matroska
Версия формата                           : Version 2
Размер файла                             : 13,1 Гбайт
Продолжительность                        : 1 ч. 30 м.
Общий поток                              : 20,8 Мбит/сек
Название фильма                          : Час Пик II.2001.Rip by: ollan
Дата кодирования                         : UTC 2015-10-28 17:49:42
Программа кодирования                    : mkvmerge v5.6.0 ('Kenya Kane') built on May 27 2012 16:44:04
Библиотека кодирования                   : libebml v1.2.3 + libmatroska v1.3.0
Видео
Идентификатор                            : 1
Формат                                   : AVC
Формат/Информация                        : Advanced Video Codec
Профиль формата                          : [email protected]
Параметр CABAC формата                   : Да
Параметр ReFrames формата                : 5 кадров
Идентификатор кодека                     : V_MPEG4/ISO/AVC
Продолжительность                        : 1 ч. 30 м.
Битрейт                                  : 14,9 Мбит/сек
Ширина                                   : 1920 пикселей
Высота                                   : 800 пикселей
Соотношение сторон                       : 2,40:1
Режим частоты кадров                     : Постоянный
Частота кадров                           : 23,976 кадра/сек
Цветовое пространство                    : YUV
Субдискретизация насыщенности            : 4:2:0
Битовая глубина                          : 8 бит
Тип развёртки                            : Прогрессивная
Бит/(Пиксели*Кадры)                      : 0.405
Размер потока                            : 9,13 Гбайт (70%)
Библиотека кодирования                   : x264 core 125 r2200 999b753
Настройки программы                      : cabac=1 / ref=5 / deblock=1:-3:-3 / analyse=0x3:0x133 / me=umh / subme=11 / psy=1 / psy_rd=1.00:0.10 / mixed_ref=1 / me_range=32 / chroma_me=1 / trellis=2 / 8x8dct=1 / cqm=0 / deadzone=21,11 / fast_pskip=0 / chroma_qp_offset=-3 / threads=12 / lookahead_threads=2 / sliced_threads=0 / nr=0 / decimate=0 / interlaced=0 / bluray_compat=0 / constrained_intra=0 / bframes=10 / b_pyramid=2 / b_adapt=2 / b_bias=0 / direct=3 / weightb=1 / open_gop=0 / weightp=2 / keyint=240 / keyint_min=23 / scenecut=40 / intra_refresh=0 / rc_lookahead=40 / rc=2pass / mbtree=1 / bitrate=14921 / ratetol=1.0 / qcomp=0.60 / qpmin=0 / qpmax=69 / qpstep=4 / cplxblur=20.0 / qblur=0.5 / ip_ratio=1.40 / aq=1:1.00
Язык                                     : English
Default                                  : Да
Forced                                   : Нет
Аудио #1
Идентификатор                            : 2
Формат                                   : AC-3
Формат/Информация                        : Audio Coding 3
Расширение режима                        : CM (complete main)
Параметр Endianness формата              : Big
Идентификатор кодека                     : A_AC3
Продолжительность                        : 1 ч. 30 м.
Вид битрейта                             : Постоянный
Битрейт                                  : 448 Кбит/сек
Каналы                                   : 6 каналов
Расположение каналов                     : Front: L C R, Side: L R, LFE
Частота                                  : 48,0 КГц
Битовая глубина                          : 16 бит
Метод сжатия                             : С потерями
Размер потока                            : 289 Мбайт (2%)
Заголовок                                : Дублированный
Язык                                     : Russian
Default                                  : Да
Forced                                   : Нет
Аудио #2
Идентификатор                            : 3
Формат                                   : AC-3
Формат/Информация                        : Audio Coding 3
Расширение режима                        : CM (complete main)
Параметр Endianness формата              : Big
Идентификатор кодека                     : A_AC3
Продолжительность                        : 1 ч. 30 м.
Вид битрейта                             : Постоянный
Битрейт                                  : 192 Кбит/сек
Каналы                                   : 2 канала
Расположение каналов                     : Front: L R
Частота                                  : 48,0 КГц
Битовая глубина                          : 16 бит
Метод сжатия                             : С потерями
Размер потока                            : 124 Мбайт (1%)
Заголовок                                : Профессиональный многоголосый (ТНТ)
Язык                                     : Russian
Default                                  : Нет
Forced                                   : Нет
Аудио #3
Идентификатор                            : 4
Формат                                   : AC-3
Формат/Информация                        : Audio Coding 3
Расширение режима                        : CM (complete main)
Параметр Endianness формата              : Big
Идентификатор кодека                     : A_AC3
Продолжительность                        : 1 ч. 30 м.
Вид битрейта                             : Постоянный
Битрейт                                  : 384 Кбит/сек
Каналы                                   : 6 каналов
Расположение каналов                     : Front: L C R, Side: L R, LFE
Частота                                  : 48,0 КГц
Битовая глубина                          : 16 бит
Метод сжатия                             : С потерями
Размер потока                            : 248 Мбайт (2%)
Заголовок                                : Профессиональный многоголосый (LDV)
Язык                                     : Russian
Default                                  : Нет
Forced                                   : Нет
Аудио #4
Идентификатор                            : 5
Формат                                   : AC-3
Формат/Информация                        : Audio Coding 3
Расширение режима                        : CM (complete main)
Параметр Endianness формата              : Big
Идентификатор кодека                     : A_AC3
Продолжительность                        : 1 ч. 30 м.
Вид битрейта                             : Постоянный
Битрейт                                  : 192 Кбит/сек
Каналы                                   : 2 канала
Расположение каналов                     : Front: L R
Частота                                  : 48,0 КГц
Битовая глубина                          : 16 бит
Метод сжатия                             : С потерями
Размер потока                            : 124 Мбайт (1%)
Заголовок                                : Профессиональный двухголосый (SDI Media)
Язык                                     : Russian
Default                                  : Нет
Forced                                   : Нет
Аудио #5
Идентификатор                            : 6
Формат                                   : AC-3
Формат/Информация                        : Audio Coding 3
Расширение режима                        : CM (complete main)
Параметр Endianness формата              : Big
Идентификатор кодека                     : A_AC3
Продолжительность                        : 1 ч. 30 м.
Вид битрейта                             : Постоянный
Битрейт                                  : 192 Кбит/сек
Каналы                                   : 2 канала
Расположение каналов                     : Front: L R
Частота                                  : 48,0 КГц
Битовая глубина                          : 16 бит
Метод сжатия                             : С потерями
Размер потока                            : 124 Мбайт (1%)
Заголовок                                : Авторский (С.Визгунов)
Язык                                     : Russian
Default                                  : Нет
Forced                                   : Нет
Аудио #6
Идентификатор                            : 7
Формат                                   : AC-3
Формат/Информация                        : Audio Coding 3
Расширение режима                        : CM (complete main)
Параметр Endianness формата              : Big
Идентификатор кодека                     : A_AC3
Продолжительность                        : 1 ч. 30 м.
Вид битрейта                             : Постоянный
Битрейт                                  : 192 Кбит/сек
Каналы                                   : 2 канала
Расположение каналов                     : Front: L R
Частота                                  : 48,0 КГц
Битовая глубина                          : 16 бит
Метод сжатия                             : С потерями
Размер потока                            : 124 Мбайт (1%)
Заголовок                                : Любительский (Славянин)
Язык                                     : Russian
Default                                  : Нет
Forced                                   : Нет
Аудио #7
Идентификатор                            : 8
Формат                                   : AC-3
Формат/Информация                        : Audio Coding 3
Расширение режима                        : CM (complete main)
Параметр Endianness формата              : Big
Идентификатор кодека                     : A_AC3
Продолжительность                        : 1 ч. 30 м.
Вид битрейта                             : Постоянный
Битрейт                                  : 192 Кбит/сек
Каналы                                   : 2 канала
Расположение каналов                     : Front: L R
Частота                                  : 48,0 КГц
Битовая глубина                          : 16 бит
Метод сжатия                             : С потерями
Размер потока                            : 124 Мбайт (1%)
Заголовок                                : Профессиональный многоголосый (NovyChannel)
Язык                                     : Ukrainian
Default                                  : Нет
Forced                                   : Нет
Аудио #8
Идентификатор                            : 9
Формат                                   : AC-3
Формат/Информация                        : Audio Coding 3
Расширение режима                        : CM (complete main)
Параметр Endianness формата              : Big
Идентификатор кодека                     : A_AC3
Продолжительность                        : 1 ч. 30 м.
Вид битрейта                             : Постоянный
Битрейт                                  : 640 Кбит/сек
Каналы                                   : 6 каналов
Расположение каналов                     : Front: L C R, Side: L R, LFE
Частота                                  : 48,0 КГц
Битовая глубина                          : 16 бит
Метод сжатия                             : С потерями
Размер потока                            : 413 Мбайт (3%)
Заголовок                                : Авторский (А.Гаврилов)
Язык                                     : Russian
Default                                  : Нет
Forced                                   : Нет
Аудио #9
Идентификатор                            : 10
Формат                                   : AC-3
Формат/Информация                        : Audio Coding 3
Расширение режима                        : CM (complete main)
Параметр Endianness формата              : Big
Идентификатор кодека                     : A_AC3
Продолжительность                        : 1 ч. 30 м.
Вид битрейта                             : Постоянный
Битрейт                                  : 192 Кбит/сек
Каналы                                   : 2 канала
Расположение каналов                     : Front: L R
Частота                                  : 48,0 КГц
Битовая глубина                          : 16 бит
Метод сжатия                             : С потерями
Размер потока                            : 124 Мбайт (1%)
Заголовок                                : Профессиональный многоголосый (IНТЕР)
Язык                                     : Ukrainian
Default                                  : Нет
Forced                                   : Нет
Аудио #10
Идентификатор                            : 11
Формат                                   : AC-3
Формат/Информация                        : Audio Coding 3
Расширение режима                        : CM (complete main)
Параметр Endianness формата              : Big
Идентификатор кодека                     : A_AC3
Продолжительность                        : 1 ч. 30 м.
Вид битрейта                             : Постоянный
Битрейт                                  : 192 Кбит/сек
Каналы                                   : 2 канала
Расположение каналов                     : Front: L R
Частота                                  : 48,0 КГц
Битовая глубина                          : 16 бит
Метод сжатия                             : С потерями
Размер потока                            : 124 Мбайт (1%)
Заголовок                                : Профессиональный многоголосый (ICTV)
Язык                                     : Ukrainian
Default                                  : Нет
Forced                                   : Нет
Аудио #11
Идентификатор                            : 12
Формат                                   : DTS
Формат/Информация                        : Digital Theater Systems
Режим                                    : 16
Параметр Endianness формата              : Big
Идентификатор кодека                     : A_DTS
Продолжительность                        : 1 ч. 30 м.
Вид битрейта                             : Постоянный
Битрейт                                  : 1509 Кбит/сек
Каналы                                   : 6 каналов
Расположение каналов                     : Front: L C R, Side: L R, LFE
Частота                                  : 48,0 КГц
Битовая глубина                          : 24 бит
Метод сжатия                             : С потерями
Размер потока                            : 973 Мбайт (7%)
Заголовок                                : Авторский (А.Гаврилов)
Язык                                     : Russian
Default                                  : Нет
Forced                                   : Нет
Аудио #12
Идентификатор                            : 13
Формат                                   : DTS
Формат/Информация                        : Digital Theater Systems
Режим                                    : 16
Параметр Endianness формата              : Big
Идентификатор кодека                     : A_DTS
Продолжительность                        : 1 ч. 30 м.
Вид битрейта                             : Постоянный
Битрейт                                  : 1509 Кбит/сек
Каналы                                   : 6 каналов
Расположение каналов                     : Front: L C R, Side: L R, LFE
Частота                                  : 48,0 КГц
Битовая глубина                          : 24 бит
Метод сжатия                             : С потерями
Размер потока                            : 973 Мбайт (7%)
Язык                                     : English
Default                                  : Нет
Forced                                   : Нет
Текст #1
Идентификатор                            : 14
Формат                                   : UTF-8
Идентификатор кодека                     : S_TEXT/UTF8
Идентификатор кодека/Информация          : UTF-8 Plain Text
Заголовок                                : Full
Язык                                     : Russian
Default                                  : Нет
Forced                                   : Нет
Текст #2
Идентификатор                            : 15
Формат                                   : UTF-8
Идентификатор кодека                     : S_TEXT/UTF8
Идентификатор кодека/Информация          : UTF-8 Plain Text
Заголовок                                : Full
Язык                                     : Estonian
Default                                  : Нет
Forced                                   : Нет
Текст #3
Идентификатор                            : 16
Формат                                   : UTF-8
Идентификатор кодека                     : S_TEXT/UTF8
Идентификатор кодека/Информация          : UTF-8 Plain Text
Заголовок                                : Full
Язык                                     : English
Default                                  : Нет
Forced                                   : Нет
Текст #4
Идентификатор                            : 17
Формат                                   : UTF-8
Идентификатор кодека                     : S_TEXT/UTF8
Идентификатор кодека/Информация          : UTF-8 Plain Text
Заголовок                                : SDH
Язык                                     : English
Default                                  : Нет
Forced                                   : Нет
Меню
00:00:00.000                             : en:Deadly Delivery
00:04:37.235                             : en:Triad Club
00:13:30.601                             : en:Heaven On Earth
00:21:42.884                             : en:Bigger than Ricky Tan
00:27:48.833                             : en:Out to Sea
00:33:22.917                             : en:Tan Overboard
00:38:50.244                             : en:Follow the Rich White Man
00:47:11.078                             : en:Crenshaw Kitchen
00:51:18.116                             : en:Road Trip
00:58:56.241                             : en:Red Dragon
01:03:52.036                             : en:Let's Play Some Craps!
01:08:59.093                             : en:An Explosive Situation
01:14:51.570                             : en:Carter v. Hu Li
01:17:29.603                             : en:Just Like Your Father
01:22:03.335                             : en:Goodbye?
01:24:38.114                             : en:Outtakes
01:30:06.776                             : en:End Credits

Скриншоты:

Яндекс.Метрика
Рейтинг@Mail.ru