[ Сегодня на трекере фрилич! Идет свободное скачивание без начисления Download ]

Мир Юрского периода / Jurassic World (2015) BDRip 1080p | Лицензия

 

Создавать темы 26-Окт-2015 19:59

Мир Юрского периода / Jurassic WorldГод выхода: 2015
Жанр: фантастика, приключения, боевик
Режиссер: Колин Треворроу
В ролях: Крис Пратт, Брайс Даллас Ховард, Ник Дж. Робинсон, Тай Симпкинс, Винсент Д’Онофрио, Ирфан Кхан, Омар Си, Б.Д. Вонг, Джейк Джонсон, Джуди Грир
О фильме:
Тысячи людей спешат увидеть Мир Юрского периода, но безопасное на первый взгляд развлечение может обернуться угрозой для их жизней...
сэмпл
Выпущено: Universal Pictures
Продолжительность: 02:04:21
Перевод: Дублированный (лицензия)
Файл
Кодек: x264
Качество: BDRip (источник: Blu-ray Disc)
Видео: 1920x960 (2,00:1), 23.976 fps, 12015 kbps
Аудио #1: AC-3, 6 ch, 640 kbps (Rus)
Аудио #2: AC-3, 6 ch, 640 kbps (Eng)
Субтитры: Русские (форс,полные), Украинские (форс,полные), Английские

MI

General
Unique ID                                : 223689650455433299348872345501675103453 (0xA8490F425979F66AA4A7B7BD5E9124DD)
Complete name                            : D:Jurassic.World.2015.BDRip.1080p.Rus.Eng.mkv
Format                                   : Matroska
Format version                           : Version 2
File size                                : 11.5 GiB
Duration                                 : 2h 4mn
Overall bit rate                         : 13.3 Mbps
Movie name                               : Мир Юрского периода / Jurassic World (2015)
Encoded date                             : UTC 2015-10-26 13:37:59
Writing application                      : mkvmerge v5.8.0 ('No Sleep / Pillow') built on Sep  2 2012 15:37:04
Writing library                          : libebml v1.2.3 + libmatroska v1.3.0
Attachements                             : cover.png / logfile.log
Video
ID                                       : 1
Format                                   : AVC
Format/Info                              : Advanced Video Codec
Format profile                           : [email protected]
Format settings, CABAC                   : Yes
Format settings, ReFrames                : 4 frames
Codec ID                                 : V_MPEG4/ISO/AVC
Duration                                 : 2h 4mn
Bit rate                                 : 12.0 Mbps
Width                                    : 1 920 pixels
Height                                   : 960 pixels
Display aspect ratio                     : 2.000
Frame rate mode                          : Constant
Frame rate                               : 23.976 fps
Color space                              : YUV
Chroma subsampling                       : 4:2:0
Bit depth                                : 8 bits
Scan type                                : Progressive
Bits/(Pixel*Frame)                       : 0.272
Stream size                              : 10.2 GiB (88%)
Title                                    : Мир Юрского периода / Jurassic World (2015)
Writing library                          : x264 core 148 r2638+53 bb29004 t_mod_Custom [[email protected] X86_64]
Encoding settings                        : cabac=1 / ref=4 / deblock=1:-3:-3 / analyse=0x3:0x133 / me=umh / subme=10 / psy=1 / fade_compensate=0.00 / psy_rd=1.00:0.00 / mixed_ref=1 / me_range=32 / chroma_me=1 / trellis=2 / 8x8dct=1 / cqm=0 / deadzone=21,11 / fast_pskip=0 / chroma_qp_offset=-2 / threads=12 / lookahead_threads=2 / sliced_threads=0 / nr=0 / decimate=0 / interlaced=0 / bluray_compat=0 / constrained_intra=0 / fgo=0 / bframes=8 / b_pyramid=2 / b_adapt=2 / b_bias=0 / direct=3 / weightb=1 / open_gop=0 / weightp=2 / keyint=240 / keyint_min=23 / scenecut=40 / intra_refresh=0 / rc_lookahead=80 / rc=2pass / mbtree=0 / bitrate=12015 / ratetol=1.0 / qcomp=0.70 / qpmin=0:0:0 / qpmax=69:69:69 / qpstep=4 / cplxblur=20.0 / qblur=0.5 / vbv_maxrate=50000 / vbv_bufsize=62500 / nal_hrd=none / filler=0 / ip_ratio=1.40 / pb_ratio=1.30 / aq=1:0.70 / aq-sensitivity=10.00 / aq-factor=1.00:1.00:1.00 / aq2=0 / aq3=0
Language                                 : English
Default                                  : Yes
Forced                                   : No
Audio #1
ID                                       : 2
Format                                   : AC-3
Format/Info                              : Audio Coding 3
Mode extension                           : CM (complete main)
Format settings, Endianness              : Big
Codec ID                                 : A_AC3
Duration                                 : 2h 4mn
Bit rate mode                            : Constant
Bit rate                                 : 640 Kbps
Channel(s)                               : 6 channels
Channel positions                        : Front: L C R, Side: L R, LFE
Sampling rate                            : 48.0 KHz
Bit depth                                : 16 bits
Compression mode                         : Lossy
Stream size                              : 569 MiB (5%)
Title                                    : Дубляж, Blu-ray CEE
Language                                 : Russian
Default                                  : Yes
Forced                                   : No
Audio #2
ID                                       : 3
Format                                   : AC-3
Format/Info                              : Audio Coding 3
Mode extension                           : CM (complete main)
Format settings, Endianness              : Big
Codec ID                                 : A_AC3
Duration                                 : 2h 4mn
Bit rate mode                            : Constant
Bit rate                                 : 640 Kbps
Channel(s)                               : 6 channels
Channel positions                        : Front: L C R, Side: L R, LFE
Sampling rate                            : 48.0 KHz
Bit depth                                : 16 bits
Compression mode                         : Lossy
Stream size                              : 569 MiB (5%)
Title                                    : English
Language                                 : English
Default                                  : No
Forced                                   : No
Text #1
ID                                       : 4
Format                                   : UTF-8
Codec ID                                 : S_TEXT/UTF8
Codec ID/Info                            : UTF-8 Plain Text
Title                                    : Russian (Forced)
Language                                 : Russian
Default                                  : Yes
Forced                                   : No
Text #2
ID                                       : 5
Format                                   : UTF-8
Codec ID                                 : S_TEXT/UTF8
Codec ID/Info                            : UTF-8 Plain Text
Title                                    : Russian
Language                                 : Russian
Default                                  : No
Forced                                   : No
Text #3
ID                                       : 6
Format                                   : UTF-8
Codec ID                                 : S_TEXT/UTF8
Codec ID/Info                            : UTF-8 Plain Text
Title                                    : Ukrainian (Forced)
Language                                 : Ukrainian
Default                                  : No
Forced                                   : No
Text #4
ID                                       : 7
Format                                   : UTF-8
Codec ID                                 : S_TEXT/UTF8
Codec ID/Info                            : UTF-8 Plain Text
Title                                    : Ukrainian
Language                                 : Ukrainian
Default                                  : No
Forced                                   : No
Text #5
ID                                       : 8
Format                                   : UTF-8
Codec ID                                 : S_TEXT/UTF8
Codec ID/Info                            : UTF-8 Plain Text
Title                                    : English
Language                                 : English
Default                                  : No
Forced                                   : No
Text #6
ID                                       : 9
Format                                   : UTF-8
Codec ID                                 : S_TEXT/UTF8
Codec ID/Info                            : UTF-8 Plain Text
Title                                    : English (SDH)
Language                                 : English
Default                                  : No
Forced                                   : No
Text #7
ID                                       : 10
Format                                   : UTF-8
Codec ID                                 : S_TEXT/UTF8
Codec ID/Info                            : UTF-8 Plain Text
Title                                    : English (SDH Colored)
Language                                 : English
Default                                  : No
Forced                                   : No
Menu
00:00:00.000                             : :Chapter 01
00:06:59.168                             : :Chapter 02
00:11:01.827                             : :Chapter 03
00:18:28.440                             : :Chapter 04
00:25:34.866                             : :Chapter 05
00:31:20.837                             : :Chapter 06
00:39:23.861                             : :Chapter 07
00:44:07.853                             : :Chapter 08
00:48:57.225                             : :Chapter 09
00:55:51.056                             : :Chapter 10
01:01:21.344                             : :Chapter 11
01:09:50.561                             : :Chapter 12
01:15:25.479                             : :Chapter 13
01:23:51.860                             : :Chapter 14
01:30:14.700                             : :Chapter 15
01:36:45.424                             : :Chapter 16
01:41:15.652                             : :Chapter 17
01:47:35.282                             : :Chapter 18
01:53:06.029                             : :Chapter 19
01:55:37.555                             : :Chapter 20
[/spoiler][spoiler="x264"]x264 [info]: frame I:1349  Avg QP:18.65  size:274822
x264 [info]: frame P:47952 Avg QP:21.31  size: 98990
x264 [info]: frame B:129587 Avg QP:23.64  size: 46912
x264 [info]: consecutive B-frames:  5.2%  5.9% 15.1% 20.6% 15.4% 33.5%  2.9%  0.7%  0.6%

Скриншоты:

Яндекс.Метрика
Рейтинг@Mail.ru