Любопытная Варвара 3 [01-08 из 08] (2015,Детектив) SATRip

 

Создавать темы 05-Окт-2015 19:39

-Любопытная Варвара 3 [01-08 из 08] (2015) SATRip-Информация о фильме
Название: Любопытная Варвара 3
Год выхода: 2015
Жанр: Детектив
Режиссер: Андрей Силкин-В ролях: : Елена Яковлева, Максим Емельянов, Дмитрий Мазуров, Александр Печенин, Екатерина Шевченко, Михаил Куряев, Юрий Нифонтов, Анастасия Шалонько, Арина Постникова, Веста Буркот, Сергей Баталов, Никита Смольянинов-О фильме:
Ради торжества правды и для защиты безвинно обижаемых Варвара снова проявляет недюжинные детективные способности, раскрывая преступные замыслы и криминальные интриги. А следователю Сергею Сафронову придется откровенно ревновать. Вот только понять бы, к чему больше – к ее любимому сыскному хобби или к директору турбазы, который, как назло, оказывается старым знакомым Варвары, а заодно и ее новоиспеченным ухажером…-Страна: Россия
Продолжительность: ~ 00:44:00
Перевод: Не требуется
Файл
Кодек: XviD
Качество: SATRip
Видео: 720x400 (1.80:1), 25 fps, XviD build 50 ~1800 kbps avg, 0.25 bit/pixel
Звук: 48 kHz, MPEG Layer 3, 2 ch, ~128.00 kbps avg

Скриншоты

MediaInfo

Общее
Полное имя : D:Ljubopytnaja.Varvara.3.SATRipLjubopytnaja.Varvara.3.01.SATRip.avi
Формат : AVI
Формат/Информация : Audio Video Interleave
Размер файла : 635 Мбайт
Продолжительность : 45 м.
Общий поток : 1937 Кбит/сек
Программа кодирования : VirtualDubMod 1.5.10.3 | www.virtualdub-fr.org || (build 2550/release)
Библиотека кодирования : VirtualDubMod build 2550/release
Видео
Идентификатор : 0
Формат : MPEG-4 Visual
Профиль формата : Advanced [email protected]
Параметр BVOP формата : 2
Параметр QPel формата : Нет
Параметр GMC формата : Без точки перехода
Параметр матрицы формата : Default (H.263)
Идентификатор кодека : XVID
Идентификатор кодека/Подсказка : XviD
Продолжительность : 45 м.
Битрейт : 1800 Кбит/сек
Ширина : 720 пикселей
Высота : 400 пикселей
Соотношение сторон : 16:9
Частота кадров : 25,000 кадров/сек
Цветовое пространство : YUV
Субдискретизация насыщенности : 4:2:0
Битовая глубина : 8 бит
Тип развёртки : Прогрессивная
Метод сжатия : С потерями
Бит/(Пиксели*Кадры) : 0.250
Размер потока : 590 Мбайт (93%)
Библиотека кодирования : XviD 1.2.1 (UTC 2008-12-04)
Аудио
Идентификатор : 1
Формат : MPEG Audio
Версия формата : Version 1
Профиль формата : Layer 3
Режим : Joint stereo
Расширение режима : MS Stereo
Идентификатор кодека : 55
Идентификатор кодека/Подсказка : MP3
Продолжительность : 45 м.
Вид битрейта : Постоянный
Битрейт : 128 Кбит/сек
Каналы : 2 канала
Частота : 48,0 КГц
Метод сжатия : С потерями
Размер потока : 42,0 Мбайт (7%)
Выравнивание : Соединение по промежуткам
Продолжительность промежутка : 40 мс. (1,00 видеокадр)
Время предзагрузки промежутка : 504 мс.
Библиотека кодирования : LAME3.99r
Настройки программы : -m j -V 4 -q 9 -lowpass 17 -b 128
Яндекс.Метрика
Рейтинг@Mail.ru