[ Сегодня на трекере фрилич! Идет свободное скачивание без начисления Download ]

Танкисты своих не бросают (2014) HDTV [H.264/1080i-LQ] (серии 1-4 из 4)

 

Создавать темы 18-Сен-2015 10:10

-Танкисты своих не бросают (2014) HDTV [H.264/1080i-LQ] (серии 1-4 из 4)- Производство: Россия, Всемирные Русские Студии
Жанр: мелодрама, драма
Режиссер: Александр Грабарь
Актеры: Ирина Пегова, Мария Луговая, Александр Яцко, Александр Никитин (IV), Екатерина Маликова, Алиса Гребенщикова, Борис Тенин (II), Константин Милованов, Анатолий Гущин, Александр Стёпин, Денис Юшечкин, Сергей Померанцев, Сергей Шеховцов, Михаил Кузнецов (V), Владимир Голубев (II), Любовь Кондрашова, Людмила Фесенко
Описание:
Наконец-то Марина счастлива. Одинокая женщина, потерявшая сына и мужа, она снова выходит замуж — за капитана танковых войск в отставке Федора. Но вскоре ее муж получает травму, после чего давнее ранение дает о себе знать. Федор при смерти. Спасти его может профессор Росман, местное светило медицины. Операция стоит больших денег, которых в семье нет, а бесплатно помочь врач отказывается. Марина продает все ценности, часть денег собирают однополчане ее мужа. Но с трудом собранную сумму крадут. А Федору становится все хуже. И тогда скромная женщина решается на отчаянный шаг: она похищает дочь профессора, Кристину, и требует спасти мужа в обмен на безопасность девушки…

Дата премьеры в России: 16 сентября 2015
Дата мировой премьеры: 07 февраля 2014
Продолжительность: ~00:48:00 серия
Качество видео: HDTV
Видео: AVC/H.264, 1920x1080 (16:9), ~8300 Kbps
Аудио: AC3, 2 ch, 192 kbps, CBR

Mediainfo:

Общее
Уникальный идентификатор                 : 219027157363619558978538768725882291505 (0xA4C7189A037B3680B707C5467A15C531)
Полное имя                               : F:\DOWNLOADS\Танкисты своих не бросают (2014) HDTV 1080\Танкисты своих не бросают - 01 серия.mkv
Формат                                   : Matroska
Версия формата                           : Version 2
Размер файла                             : 2,91 Гбайт
Продолжительность                        : 47 м.
Общий поток                              : 8703 Кбит/сек
Дата кодирования                         : UTC 2015-09-18 06:03:26
Программа кодирования                    : mkvmerge v7.8.0 ('River Man') 32bit built on Apr  3 2015 12:11:22
Библиотека кодирования                   : libebml v1.3.1 + libmatroska v1.4.2
Видео
Идентификатор                            : 1
Формат                                   : AVC
Формат/Информация                        : Advanced Video Codec
Профиль формата                          : [email protected]
Параметр CABAC формата                   : Да
Параметр ReFrames формата                : 3 кадра
Идентификатор кодека                     : V_MPEG4/ISO/AVC
Продолжительность                        : 47 м.
Битрейт                                  : 8337 Кбит/сек
Ширина                                   : 1920 пикселей
Высота                                   : 1080 пикселей
Соотношение сторон                       : 16:9
Режим частоты кадров                     : Постоянный
Частота кадров                           : 25,000 кадров/сек
Стандарт вещания                         : Component
Цветовое пространство                    : YUV
Субдискретизация насыщенности            : 4:2:0
Битовая глубина                          : 8 бит
Тип развёртки                            : Чересстрочная
Порядок развёртки                        : Верхнее поле первое
Бит/(Пиксели*Кадры)                      : 0.161
Размер потока                            : 2,79 Гбайт (96%)
Default                                  : Да
Forced                                   : Нет
Цветовой диапазон                        : Limited
Основные цвета                           : BT.709
Характеристики трансфера                 : BT.709
Коэффициенты матрицы                     : BT.709
Аудио
Идентификатор                            : 2
Формат                                   : AC-3
Формат/Информация                        : Audio Coding 3
Расширение режима                        : CM (complete main)
Параметр Endianness формата              : Big
Идентификатор кодека                     : A_AC3
Продолжительность                        : 47 м.
Вид битрейта                             : Постоянный
Битрейт                                  : 192 Кбит/сек
Каналы                                   : 2 канала
Расположение каналов                     : Front: L R
Частота                                  : 48,0 КГц
Метод сжатия                             : С потерями
Размер потока                            : 65,8 Мбайт (2%)
Default                                  : Да
Forced                                   : Нет
Скриншоты:
Все раздачи сериала «Танкисты своих не бросают»Время раздачи: с 10:00 до 20:00
Яндекс.Метрика
Рейтинг@Mail.ru