Роковое влечение / Fatal Attraction (1987,ужасы, триллер, драма, мелодрама) BDRip 720p

 

Создавать темы 16-Сен-2015 13:16

-Роковое влечение / Fatal Attraction (1987) BDRip 720p-Название: Роковое влечение
Оригинальное название: Fatal Attraction
Год выпуска: 1987-Страна: США-Жанр: ужасы, триллер, драма, мелодрама-Продолжительность: 01:59:28-Перевод: профессиональный многоголосый, профессиональный двухголосый, авторский-Режиссёр: Эдриан Лайн-В ролях: Майкл Дуглас, Гленн Клоуз, Энн Арчер, Том Браннан, Мег Манди, Эллен Хэмилтон Лэтцен, Стюарт Пэнкин, Эллен Фоли, Фред Гуинн, Лоис Смит, Майк Нассбаум, Сэм Коппола, Джейн Краковски, Мэри Джой, Марк МакКью, Джеймс Экхаус, Кэрол Шнайдер, Анна Левайн-Томпсон, Джонатан Брэндис, Джо Чэпман-Описание: Беззаботной и счастливой была жизнь адвоката Дэна Галлагера с молодой женой Бэт и пятилетней дочерью Эллен до того рокового дня, когда Бэт и Эллен отправились за город к родителям, а у Дэна появилось два дня «свободы» от семейных уз. Почувствовав мимолётное влечение к Алекс Форрест, новой сотруднице обслуживаемой им фирмы, он был польщён взаимностью дамы и провёл с ней несколько часов любви сначала в своём доме, а затем уже на квартире любовницы. К исходу второго дня Дэн хотел благополучно вернуться к своему семейному очагу, но оказалось, что теперь он зажат мёртвой хваткой настоящей любовной маньячки. Она начала с того, что перерезала себе вены, и охваченному паникой Дэну пришлось бинтовать ей руки и утешать. Когда Дэну всё же удалось вырваться от Алекс к себе домой, его жизнь превратилась в настоящий кошмар...- -Качество: BDRip 720p
Формат: MKV
Видео: MPEG-4 AVC, 4910 Kбит/с, 1280x720, 23,976 кадра/с
Аудио 1: русский, AC3, 448 kbps, 6 ch, 48 kHz [профессиональный многоголосый]
Аудио 2: русский, AC3, 192 kbps, 2 ch, 48 kHz [профессиональный двухголосый, Universal Picture Rus]
Аудио 3: русский, AC3, 448 kbps, 6 ch, 48 kHz [авторский, Юрий Живов]
Внешние файлы
Аудио: русский, AC3, 448 kbps, 6 ch, 48 kHz [профессиональный многоголосый, LDV]
Аудио: русский, AC3, 192 kbps, 2 ch, 48 kHz [профессиональный многоголосый, ТК "Россия"]
Аудио: русский, AC3, 192 kbps, 2 ch, 48 kHz [профессиональный двухголосый, Премьер Видео фильм]
Аудио: русский, AC3, 192 kbps, 2 ch, 48 kHz [авторский, Леонид Володарский]
Аудио: русский, AC3, 192 kbps, 2 ch, 48 kHz [авторский, Андрей Гаврилов]
Аудио: русский, AC3, 192 kbps, 2 ch, 48 kHz [авторский, Василий Горчаков]
Аудио: английский, AC3, 448 kbps, 6 ch, 48 kHz [оригинал]
Субтитры: английские

Награды

Британская академия, 1989 год
Победитель (1):
Лучший монтаж
Номинации (2):
Лучшая мужская роль (Майкл Дуглас)
Лучшая женская роль второго плана (Энн Арчер)
Оскар, 1988 год
Номинации (6):
Лучший фильм
Лучшая женская роль (Гленн Клоуз)
Лучшая женская роль второго плана (Энн Арчер)
Лучший режиссер (Эдриан Лайн)
Лучший адаптированный сценарий
Лучший монтаж
Золотой глобус, 1988 год
Номинации (4):
Лучший фильм (драма)
Лучшая женская роль (драма) (Гленн Клоуз)
Лучшая женская роль второго плана (Энн Арчер)
Лучший режиссер (Эдриан Лайн)
Сатурн, 1988 год
Номинации (1):
Лучший сценарий

Инфо-файл

Общее
Полное имя : D:VideoРоковое влечение.1987.BDRip.720pРоковое влечение.1987.AVO.rus.А.Гаврилов.ac3
Формат : AC-3
Формат/Информация : Audio Coding 3
Размер файла : 164 Мбайт
Продолжительность : 1 ч. 59 м.
Режим общего битрейта : Постоянный
Общий поток : 192 Кбит/сек
Аудио
Формат : AC-3
Формат/Информация : Audio Coding 3
Расширение режима : CM (complete main)
Параметр Endianness формата : Big
Продолжительность : 1 ч. 59 м.
Вид битрейта : Постоянный
Битрейт : 192 Кбит/сек
Каналы : 2 канала
Расположение каналов : Front: L R
Частота : 48,0 КГц
Метод сжатия : С потерями
Размер потока : 164 Мбайт (100%)
Общее
Полное имя : D:VideoРоковое влечение.1987.BDRip.720pРоковое влечение.1987.AVO.rus.В.Горчаков.ac3
Формат : AC-3
Формат/Информация : Audio Coding 3
Размер файла : 164 Мбайт
Продолжительность : 1 ч. 59 м.
Режим общего битрейта : Постоянный
Общий поток : 192 Кбит/сек
Аудио
Формат : AC-3
Формат/Информация : Audio Coding 3
Расширение режима : CM (complete main)
Параметр Endianness формата : Big
Продолжительность : 1 ч. 59 м.
Вид битрейта : Постоянный
Битрейт : 192 Кбит/сек
Каналы : 2 канала
Расположение каналов : Front: L R
Частота : 48,0 КГц
Метод сжатия : С потерями
Размер потока : 164 Мбайт (100%)
Общее
Полное имя : D:VideoРоковое влечение.1987.BDRip.720pРоковое влечение.1987.AVO.rus.Л.Володарский.ac3
Формат : AC-3
Формат/Информация : Audio Coding 3
Размер файла : 164 Мбайт
Продолжительность : 1 ч. 59 м.
Режим общего битрейта : Постоянный
Общий поток : 192 Кбит/сек
Аудио
Формат : AC-3
Формат/Информация : Audio Coding 3
Расширение режима : CM (complete main)
Параметр Endianness формата : Big
Продолжительность : 1 ч. 59 м.
Вид битрейта : Постоянный
Битрейт : 192 Кбит/сек
Каналы : 2 канала
Расположение каналов : Front: L R
Частота : 48,0 КГц
Метод сжатия : С потерями
Размер потока : 164 Мбайт (100%)
Общее
Уникальный идентификатор : 222618532908097662446176888551369910602 (0xA77AC51638C092E591B4B8C07834A94A)
Полное имя : D:VideoРоковое влечение.1987.BDRip.720pРоковое влечение.1987.BDRip.720p.mkv
Формат : Matroska
Версия формата : Version 4 / Version 2
Размер файла : 5,16 Гбайт
Продолжительность : 1 ч. 59 м.
Общий поток : 6185 Кбит/сек
Название фильма : BDRip -- STarankov
Дата кодирования : UTC 2015-09-16 01:34:59
Программа кодирования : mkvmerge v8.2.0 ('World of Adventure') 64bit
Библиотека кодирования : libebml v1.3.1 + libmatroska v1.4.2
DURATION : 01:59:28.448000000
NUMBER_OF_FRAMES : 224014
NUMBER_OF_BYTES : 401433088
_STATISTICS_WRITING_APP : mkvmerge v8.2.0 ('World of Adventure') 64bit
_STATISTICS_WRITING_DATE_UTC : 2015-09-16 01:34:59
_STATISTICS_TAGS : BPS DURATION NUMBER_OF_FRAMES NUMBER_OF_BYTES
Видео
Идентификатор : 1
Формат : AVC
Формат/Информация : Advanced Video Codec
Профиль формата : [email protected]
Параметр CABAC формата : Да
Параметр ReFrames формата : 9 кадров
Идентификатор кодека : V_MPEG4/ISO/AVC
Продолжительность : 1 ч. 59 м.
Битрейт : 4910 Кбит/сек
Ширина : 1280 пикселей
Высота : 720 пикселей
Соотношение сторон : 16:9
Режим частоты кадров : Постоянный
Частота кадров : 23,976 кадра/сек
Цветовое пространство : YUV
Субдискретизация насыщенности : 4:2:0
Битовая глубина : 8 бит
Тип развёртки : Прогрессивная
Бит/(Пиксели*Кадры) : 0.222
Размер потока : 4,10 Гбайт (79%)
Библиотека кодирования : x264 core 146 r2538 121396c
Настройки программы : cabac=1 / ref=9 / deblock=1:-3:-3 / analyse=0x3:0x113 / me=umh / subme=10 / psy=1 / psy_rd=1.00:0.15 / mixed_ref=1 / me_range=32 / chroma_me=1 / trellis=2 / 8x8dct=1 / cqm=0 / deadzone=21,11 / fast_pskip=1 / chroma_qp_offset=-3 / threads=6 / lookahead_threads=1 / sliced_threads=0 / nr=0 / decimate=1 / interlaced=0 / bluray_compat=0 / constrained_intra=0 / bframes=8 / b_pyramid=2 / b_adapt=2 / b_bias=0 / direct=1 / weightb=1 / open_gop=0 / weightp=2 / keyint=230 / keyint_min=23 / scenecut=40 / intra_refresh=0 / rc_lookahead=40 / rc=crf / mbtree=0 / crf=18.9 / qcomp=0.60 / qpmin=0 / qpmax=69 / qpstep=4 / vbv_maxrate=40000 / vbv_bufsize=50000 / crf_max=0.0 / nal_hrd=none / filler=0 / ip_ratio=1.40 / pb_ratio=1.30 / aq=1:1.00
Язык : English
Default : Да
Forced : Нет
DURATION : 01:59:28.412000000
NUMBER_OF_FRAMES : 171870
NUMBER_OF_BYTES : 4507604612
_STATISTICS_WRITING_APP : mkvmerge v8.2.0 ('World of Adventure') 64bit
_STATISTICS_WRITING_DATE_UTC : 2015-09-16 01:34:59
_STATISTICS_TAGS : BPS DURATION NUMBER_OF_FRAMES NUMBER_OF_BYTES
Аудио #1
Идентификатор : 2
Формат : AC-3
Формат/Информация : Audio Coding 3
Расширение режима : CM (complete main)
Параметр Endianness формата : Big
Идентификатор кодека : A_AC3
Продолжительность : 1 ч. 59 м.
Вид битрейта : Постоянный
Битрейт : 448 Кбит/сек
Каналы : 6 каналов
Расположение каналов : Front: L C R, Side: L R, LFE
Частота : 48,0 КГц
Метод сжатия : С потерями
Размер потока : 383 Мбайт (7%)
Заголовок : MVO
Язык : Russian
Default : Да
Forced : Нет
Аудио #2
Идентификатор : 3
Формат : AC-3
Формат/Информация : Audio Coding 3
Расширение режима : CM (complete main)
Параметр Endianness формата : Big
Идентификатор кодека : A_AC3
Продолжительность : 1 ч. 59 м.
Вид битрейта : Постоянный
Битрейт : 256 Кбит/сек
Каналы : 2 канала
Расположение каналов : Front: L R
Частота : 48,0 КГц
Метод сжатия : С потерями
Размер потока : 219 Мбайт (4%)
Заголовок : DVO (Universal Picture Rus)
Язык : Russian
Default : Нет
Forced : Нет
Аудио #3
Идентификатор : 4
Формат : AC-3
Формат/Информация : Audio Coding 3
Расширение режима : CM (complete main)
Параметр Endianness формата : Big
Идентификатор кодека : A_AC3
Продолжительность : 1 ч. 59 м.
Вид битрейта : Постоянный
Битрейт : 448 Кбит/сек
Каналы : 6 каналов
Расположение каналов : Front: L C R, Side: L R, LFE
Частота : 48,0 КГц
Метод сжатия : С потерями
Размер потока : 383 Мбайт (7%)
Заголовок : AVO (Юрий Живов)
Язык : Russian
Default : Нет
Forced : Нет
Общее
Полное имя : D:VideoРоковое влечение.1987.BDRip.720pРоковое влечение.1987.DVO.rus.Премьер Видео фильм.ac3
Формат : AC-3
Формат/Информация : Audio Coding 3
Размер файла : 164 Мбайт
Продолжительность : 1 ч. 59 м.
Режим общего битрейта : Постоянный
Общий поток : 192 Кбит/сек
Аудио
Формат : AC-3
Формат/Информация : Audio Coding 3
Расширение режима : CM (complete main)
Параметр Endianness формата : Big
Продолжительность : 1 ч. 59 м.
Вид битрейта : Постоянный
Битрейт : 192 Кбит/сек
Каналы : 2 канала
Расположение каналов : Front: L R
Частота : 48,0 КГц
Метод сжатия : С потерями
Размер потока : 164 Мбайт (100%)
Общее
Полное имя : D:VideoРоковое влечение.1987.BDRip.720pРоковое влечение.1987.eng.srt
Формат : SubRip
Размер файла : 86,6 Кбайт
Текст
Формат : SubRip
Метод сжатия : Без потерь
Общее
Полное имя : D:VideoРоковое влечение.1987.BDRip.720pРоковое влечение.1987.MVO.rus.LDV.ac3
Формат : AC-3
Формат/Информация : Audio Coding 3
Размер файла : 383 Мбайт
Продолжительность : 1 ч. 59 м.
Режим общего битрейта : Постоянный
Общий поток : 448 Кбит/сек
Аудио
Формат : AC-3
Формат/Информация : Audio Coding 3
Расширение режима : CM (complete main)
Параметр Endianness формата : Big
Продолжительность : 1 ч. 59 м.
Вид битрейта : Постоянный
Битрейт : 448 Кбит/сек
Каналы : 6 каналов
Расположение каналов : Front: L C R, Side: L R, LFE
Частота : 48,0 КГц
Метод сжатия : С потерями
Размер потока : 383 Мбайт (100%)
Общее
Полное имя : D:VideoРоковое влечение.1987.BDRip.720pРоковое влечение.1987.MVO.rus.ТК Россия.ac3
Формат : AC-3
Формат/Информация : Audio Coding 3
Размер файла : 164 Мбайт
Продолжительность : 1 ч. 59 м.
Режим общего битрейта : Постоянный
Общий поток : 192 Кбит/сек
Аудио
Формат : AC-3
Формат/Информация : Audio Coding 3
Расширение режима : CM (complete main)
Параметр Endianness формата : Big
Продолжительность : 1 ч. 59 м.
Вид битрейта : Постоянный
Битрейт : 192 Кбит/сек
Каналы : 2 канала
Расположение каналов : Front: L R
Частота : 48,0 КГц
Метод сжатия : С потерями
Размер потока : 164 Мбайт (100%)
Общее
Полное имя : D:VideoРоковое влечение.1987.BDRip.720pРоковое влечение.1987.Original.eng.ac3
Формат : AC-3
Формат/Информация : Audio Coding 3
Размер файла : 383 Мбайт
Продолжительность : 1 ч. 59 м.
Режим общего битрейта : Постоянный
Общий поток : 448 Кбит/сек
Аудио
Формат : AC-3
Формат/Информация : Audio Coding 3
Расширение режима : CM (complete main)
Параметр Endianness формата : Big
Продолжительность : 1 ч. 59 м.
Вид битрейта : Постоянный
Битрейт : 448 Кбит/сек
Каналы : 6 каналов
Расположение каналов : Front: L C R, Side: L R, LFE
Частота : 48,0 КГц
Метод сжатия : С потерями
Размер потока : 383 Мбайт (100%)

Скриншоты

Яндекс.Метрика
Рейтинг@Mail.ru