[ Сегодня на трекере фрилич! Идет свободное скачивание без начисления Download ]

Тепловой удар / Heatstroke (2013) HDRip

 

Создавать темы 14-Сен-2015 13:52

- Тепловой удар / Heatstroke (2013) HDRip - Производство: США, Bold Films, Film Afrika Worldwide
Жанр: Триллер
Режиссер: Эвелин Пурселл
Актеры: Стивен Дорфф, Светлана Меткина, Андреа Роукс, Петер Стормаре, Мэйси Уильямс
Описание:
Семейная поездка-сафари по пустыне омрачается убийством главы семейства. Встреча с браконьерами заставляет оставшихся в живых мать и дочь бороться за свои жизни.
Дата мировой премьеры: 19 декабря 2013
Продолжительность: 01:31:38
Качество видео: HDRip
Перевод: Многоголосый закадровый (Официальный звук)
Субтитры: Отсутствуют
Видео: Xvid, 720x320, ~1934 kbps
Аудио: AC3, 2 ch, 192 kbps
Семпл: Скачать

Mediainfo:

Общее
Полное имя : F:\Teplovoj.ydar.2013.P.HDRip..avi
Формат : AVI
Формат/Информация : Audio Video Interleave
Размер файла : 1,37 Гбайт
Продолжительность : 1 ч. 31 м.
Общий поток : 2135 Кбит/сек
Программа кодирования : VirtualDubMod 1.5.10.2 (build 2540/release)
Библиотека кодирования : VirtualDubMod build 2540/release
Видео
Идентификатор : 0
Формат : MPEG-4 Visual
Профиль формата : Advanced [email protected]
Параметр BVOP формата : 2
Параметр QPel формата : Нет
Параметр GMC формата : Без точки перехода
Параметр матрицы формата : Default (MPEG)
Идентификатор кодека : XVID
Идентификатор кодека/Подсказка : XviD
Продолжительность : 1 ч. 31 м.
Битрейт : 1934 Кбит/сек
Ширина : 720 пикселей
Высота : 320 пикселей
Соотношение сторон : 2,25:1
Частота кадров : 23,976 кадра/сек
Цветовое пространство : YUV
Субдискретизация насыщенности : 4:2:0
Битовая глубина : 8 бит
Тип развёртки : Прогрессивная
Метод сжатия : С потерями
Бит/(Пиксели*Кадры) : 0.350
Размер потока : 1,24 Гбайт (91%)
Библиотека кодирования : XviD 1.2.1 (UTC 2008-12-04)
Аудио
Идентификатор : 1
Формат : AC-3
Формат/Информация : Audio Coding 3
Расширение режима : CM (complete main)
Параметр Endianness формата : Big
Идентификатор кодека : 2000
Продолжительность : 1 ч. 31 м.
Вид битрейта : Постоянный
Битрейт : 192 Кбит/сек
Каналы : 2 канала
Расположение каналов : Front: L R
Частота : 48,0 КГц
Битовая глубина : 16 бит
Метод сжатия : С потерями
Размер потока : 126 Мбайт (9%)
Выравнивание : Разделение по промежуткам
Продолжительность промежутка : 42 мс. (1,00 видеокадр)
Время предзагрузки промежутка : 500 мс.
Скриншоты:
Время раздачи: 24/7 до 10 скачавших
Яндекс.Метрика
Рейтинг@Mail.ru